This commit is contained in:
2026-03-04 23:59:27 +09:00
parent 6e0312f5b4
commit 4b4e2b8c98
1128 changed files with 668765 additions and 0 deletions

294
tja/1002.tja Normal file
View File

@@ -0,0 +1,294 @@
//TJADB Project
TITLE:Usseewa
TITLEJA:うっせぇわ
SUBTITLE:--syudou feat. Ado
SUBTITLEJA:Ado
BPM:178
WAVE:Usseewa.ogg
OFFSET:-0.393
DEMOSTART:51.606
COURSE:Oni
LEVEL:8
BALLOON:6
SCOREINIT:700
SCOREDIFF:198
#START
300300222222,
300300222222,
300300222222,
33333030,
#GOGOSTART
1000100010111010,
1000100010112010,
1000100010112010,
1000100010112011,
1000100010111010,
1000100010112010,
1000100010111010,
10101222,
#GOGOEND
1000202010222020,
1000200010111010,
1000202010222020,
1000200010111010,
1000202010222020,
1000200010111010,
1020201010002011,
12210221,
1110202010201120,
1110202010201120,
1110201110202010,
1110201110202010,
2022102020221020,
2022102020221020,
2022102210221022,
1022111110112000,
1001001010010010,
1001001020221020,
1001001010010010,
1001001020221111,
1001021010010210,
1001021020201121,
1021021010210210,
3333,
3222,
2020
#SCROLL 4
7008,
#GOGOSTART
#SCROLL 1
3011200030112000,
3000300030002011,
1011201110222011,
1011201110002000,
3011200030112000,
3000300030002011,
1011201110112011,
100000000000200000200000500000000000000008000000,
1000102010111020,
1000102010121020,
1000102010111020,
500000000000000008000000200000200000200000000000,
3011200030112000,
3000300030002011,
1011201110112110,
30033003,
03033000,
#GOGOEND
#END
COURSE:Hard
LEVEL:3
BALLOON:4
SCOREINIT:5140
SCOREDIFF:
#START
3300,
3300,
3300,
33333030,
#GOGOSTART
600000000000000000000008,
,
1110,
1110,
1112,
1112,
1112,
1112,
#GOGOEND
10111011,
1120,
10111011,
1120,
10111011,
10102001,
10101001,
10110220,
20222000,
20222000,
20220220,
22222000,
10111011,
1222,
1,
,
1001001010000000,
1001001020000000,
1001001010000000,
1001001020000000,
1001001010000000,
1001001020000000,
3003003030030030,
3333,
3,
0000000070000800,
#GOGOSTART
1212,
3330,
11111020,
3330,
1212,
3330,
11111020,
500000000000000000000008,
,
1022,
1022,
10002220,
1212,
3330,
11111020,
30033003,
03033000,
#GOGOEND
#END
COURSE:Normal
LEVEL:2
BALLOON:3,0
SCOREINIT:8300
SCOREDIFF:
#START
3300,
3300,
3300,
33333030,
#GOGOSTART
600000000000000000000008,
,
,
,
1110,
1110,
1110,
1110,
#GOGOEND
11,
1110,
11,
1110,
11,
1110,
11,
1100,
22,
2220,
22,
2220,
1110,
1110,
2,
,
11,
12,
11,
12,
11,
12,
33,
3333,
3,
0000000070000800,
#GOGOSTART
1111,
3330,
1111,
3330,
1111,
3330,
1111,
500000000000000000000008,
,
12,
12,
1,
1111,
3330,
1111,
7,
00080000,
#GOGOEND
#END
COURSE:Easy
LEVEL:2
BALLOON:2,0
SCOREINIT:12310
SCOREDIFF:
#START
3300,
3300,
3300,
3333,
#GOGOSTART
600000000000000000000008,
,
,
,
11,
11,
11,
11,
#GOGOEND
1,
1,
11,
1,
1,
1,
11,
1,
2,
2,
22,
2,
11,
1,
2,
,
1,
1,
1,
1,
11,
11,
33,
3333,
3,
0000000070000800,
#GOGOSTART
11,
3330,
11,
3330,
11,
3330,
11,
500000000000000000000008,
,
1,
11,
1,
11,
3330,
1110,
7,
00080000,
#GOGOEND
#END