This commit is contained in:
2026-03-04 23:59:27 +09:00
parent 6e0312f5b4
commit 4b4e2b8c98
1128 changed files with 668765 additions and 0 deletions

362
tja/101.tja Normal file
View File

@@ -0,0 +1,362 @@
//TJADB Project
TITLE:Kokoro Korogase!
TITLEJA:ココロ転がせっ!
SUBTITLE:--T-pistonz & KMC
SUBTITLEJA:コロコロコミック35周年応援ソング
BPM:144.65
WAVE:Kokoro Korogase!.ogg
OFFSET:-1.955
DEMOSTART:41.975
COURSE:Oni
LEVEL:5
BALLOON:50
SCOREINIT:870
SCOREDIFF:248
#START
0300,
#BPMCHANGE 144.15
#SCROLL 0.99
12120200,
#BPMCHANGE 143.49
#SCROLL 1
12120200,
#BPMCHANGE 143.18
12101212,
#BPMCHANGE 143.43
0020002022202000,
#BPMCHANGE 144.43
#SCROLL 0.99
12120200,
#BPMCHANGE 145.32
12120200,
#BPMCHANGE 144.12
#SCROLL 1
1020100110111040,
#BPMCHANGE 142.75
#SCROLL 1.01
0010001000102220,
#BPMCHANGE 144.8
#SCROLL 0.99
10101210,
#BPMCHANGE 144.82
10101212,
#BPMCHANGE 143.62
#SCROLL 1
10101210,
#BPMCHANGE 144.05
1022201110002000,
#BPMCHANGE 141.77
#SCROLL 1.01
10101210,
#BPMCHANGE 145.58
#SCROLL 0.99
10101212,
#BPMCHANGE 142.69
#SCROLL 1.01
10101215,
#BPMCHANGE 145.56
#SCROLL 0.99
0000000000000000000000000000000000000008000000000000000000000000,
#BPMCHANGE 142.94
#SCROLL 1
1010111020202220,
#BPMCHANGE 145.07
#SCROLL 0.99
1010111000202000,
#BPMCHANGE 143.24
#SCROLL 1
1010111020202220,
#BPMCHANGE 144.76
#SCROLL 0.99
1010111000102000,
#BPMCHANGE 144.29
#SCROLL 1
1010111020202220,
#BPMCHANGE 145.13
#SCROLL 0.99
1010111020002000,
#BPMCHANGE 143.18
#SCROLL 1
1010111022200030,
#BPMCHANGE 142.63
#SCROLL 1.01
3,
#GOGOSTART
#BPMCHANGE 143.62
#SCROLL 1
1000202010111000,
#BPMCHANGE 144.56
#SCROLL 0.99
1000202010222020,
#BPMCHANGE 145.13
1000202010222020,
#BPMCHANGE 143.51
#SCROLL 1
3333,
#BPMCHANGE 142.86
#SCROLL 1.01
12101212,
#BPMCHANGE 144.76
#SCROLL 0.99
1122,
#BPMCHANGE 144.41
12101103,
#BPMCHANGE 144.75
0010101011102220,
#BPMCHANGE 141.59
#SCROLL 1.01
1000202010111000,
#BPMCHANGE 144.24
#SCROLL 1
1000202010222020,
#BPMCHANGE 144.37
#SCROLL 0.99
1000202010222020,
#BPMCHANGE 143.99
#SCROLL 1
34343434,
#BPMCHANGE 143.62
30330330,
#BPMCHANGE 145.48
#SCROLL 0.99
40440400,
#BPMCHANGE 144
#SCROLL 1
30303303,
#BPMCHANGE 145.41
#SCROLL 0.99
0011102011102060,
#BPMCHANGE 141.77
#SCROLL 1.01
000000000000000000000008,
#BPMCHANGE 143.55
#SCROLL 1
,
#BPMCHANGE 144.37
#SCROLL 0.99
1020100110111040,
#GOGOEND
#BPMCHANGE 143.49
#SCROLL 1
01010101,
#BPMCHANGE 143.68
1022201010201020,
#MEASURE 3/4
#BPMCHANGE 144.56
#SCROLL 0.99
10112010
#BPMCHANGE 139.91
#SCROLL 1.03
0000,
#MEASURE 5/4
#BPMCHANGE 116.3
#SCROLL 1.24
7,
#MEASURE 10/4
0000000000000000
#BPMCHANGE 117.79
#SCROLL 3
008000043000000000000000,
#END
COURSE:Hard
LEVEL:4
BALLOON:30
#START
0300,
12120200,
12120200,
10101212,
02020000,
12120200,
12120200,
10101234,
,
10101110,
1122,
10101110,
2220,
10101110,
1122,
10101115,
0000000000000000000000000000000000000008000000000000000000000000,
11102220,
11210220,
11102220,
11210120,
11102220,
11212020,
11212203,
3,//25
#GOGOSTART
1000101011102000,
1000101011102000,
1011100010111000,
3333,
12101212,
1122,
12101103,
,
1000101011102000,
1000101011102000,
1011100010111000,
34343434,
30330330,
40440400,
30303303,
01121126,
000000000000000000000008,
,
10101234,//44
#GOGOEND
,
12211212,
#MEASURE 3/4
112100,
#MEASURE 6/4
9,
009,
830,
#MEASURE 4/4
,//222combo
#END
COURSE:Normal
LEVEL:4
BALLOON:7,7,22
#START
0300,
1110,
1110,
1111,
2220,
1110,
1110,
10101033,
,
5000000000000000000000000000000000000008000000000000000000000000,
1110,
10101110,
2220,
5000000000000000000000000000000000000008000000000000000000000000,
1110,
10101115,
0000000000000000000000000000000000000008000000000000000000000000,
1122,
10100220,
1122,
10100220,
1122,
1122,
3344,
3,//25
#GOGOSTART
10111010,
2220,
10111010,
7008,
10101110,
1122,
10101103,
,
10111010,
2220,
10111010,
7008,
30030000,
40040000,
30303003,
00000006,
000000000000000000000008,
,
10101033,//44
#GOGOEND
,
10101110,
#MEASURE 3/4
13,
#MEASURE 6/4
9,
009,
830,
#MEASURE 4/4
,//134combo
#END
COURSE:Easy
LEVEL:3
BALLOON:4,4,12
#START
0300,
11,
11,
1110,
1,
11,
11,
10101003,
,
5000000000000000000000000000000800000000000000000000000000000000,
11,
1110,
2220,
5000000000000000000000000000000800000000000000000000000000000000,
11,
10101005,
0000000000000000000000000000000000000008000000000000000000000000,
1101,
1100,
1101,
1100,
1101,
1100,
3303,
3,//25
#GOGOSTART
1110,
2220,
1111,
7008,
1110,
11,
10101003,
,
1110,
2220,
1111,
7008,
30030000,
40040000,
30303003,
00000006,
000000000000000000000008,
,
10101003,//44
#GOGOEND
,
1011,
#MEASURE 3/4
13,
#MEASURE 6/4
9,
009,
830,
,
#END