tja
This commit is contained in:
479
tja/1011.tja
Normal file
479
tja/1011.tja
Normal file
@@ -0,0 +1,479 @@
|
||||
//TJADB Project
|
||||
TITLE:Bokura no Mae ni Michi wa Aru
|
||||
TITLEJA:ボクらのまえに道はある
|
||||
SUBTITLE:--Tohru Okada & Shock Taro feat. HONOKA
|
||||
SUBTITLEJA:HONOKA
|
||||
BPM:170
|
||||
WAVE:Bokura no Mae ni Michi wa Aru.ogg
|
||||
OFFSET:-1.574
|
||||
DEMOSTART:43.888
|
||||
|
||||
COURSE:Oni
|
||||
LEVEL:8
|
||||
BALLOON:5,5,5,5,7
|
||||
SCOREINIT:470
|
||||
SCOREDIFF:115
|
||||
|
||||
|
||||
#START
|
||||
|
||||
|
||||
30000303,
|
||||
0010200011122010,
|
||||
30000303,
|
||||
0000400010102110,
|
||||
1022201000002022,
|
||||
10210122,
|
||||
1022200010002020,
|
||||
100000200100000100200222,
|
||||
1022201022101020,
|
||||
0000201110102000,
|
||||
1022200010002000,
|
||||
1022201020122211,
|
||||
1022201000002022,
|
||||
10210122,
|
||||
1022200010002010,
|
||||
00210120,
|
||||
1022200010002010,
|
||||
0000201022202110,
|
||||
1022201010002010,
|
||||
0020222010102011,
|
||||
100022100022100100000100,
|
||||
000100000100100022100000,
|
||||
200011200011200200000200,
|
||||
0020002022112211,
|
||||
1010000020122010,
|
||||
0002201010120210,
|
||||
1012202210102211,
|
||||
10021120,
|
||||
000000002000000000100000200000100100100000000000,
|
||||
02020200,
|
||||
|
||||
#GOGOSTART
|
||||
1000201000112000,
|
||||
1000201022102000,
|
||||
1000201220002000,
|
||||
1000201000112000,
|
||||
1000201000112000,
|
||||
1000201022102000,
|
||||
1010200010102012,
|
||||
0010201000102002,
|
||||
1000200010002022,
|
||||
1000200022102000,
|
||||
1010200010102022,
|
||||
1000201022102000,
|
||||
1000200010102022,
|
||||
000300202020,
|
||||
1002207000802000,
|
||||
1022207000802000,
|
||||
1011207000802000,
|
||||
1022207000802010,
|
||||
|
||||
#GOGOEND
|
||||
0000200212102002,
|
||||
1000200212102010,
|
||||
0010200212102002,
|
||||
1020222000100000,
|
||||
1010002000000022,
|
||||
1010002000100022,
|
||||
1000200010002022,
|
||||
1022002000102022,
|
||||
11070080,
|
||||
100000100000200000000000200000100000200000200200,
|
||||
1022200010002000,
|
||||
1000201000002211,
|
||||
1000102002100002,
|
||||
1000101000200002,
|
||||
1022100000200012,
|
||||
000000100000100000200000000200100000000000202020,
|
||||
1000122212102012,
|
||||
0200101222201022,
|
||||
1200001012221012,
|
||||
0022022220122110,
|
||||
100022100022100100000100,
|
||||
000100000100100022100000,
|
||||
200011200011200200000200,
|
||||
0020001022112011,
|
||||
1010000020122010,
|
||||
1022201020020020,
|
||||
1010200222102211,
|
||||
10021120,
|
||||
000000002000000000100000200000100100200200200200,
|
||||
0020002000200011,
|
||||
|
||||
#GOGOSTART
|
||||
1000201000112000,
|
||||
1000201022102000,
|
||||
1000202210002000,
|
||||
1000200212102000,
|
||||
1000201000002002,
|
||||
1000201022102000,
|
||||
1010200010102012,
|
||||
1010201020122210,
|
||||
1000200010102002,
|
||||
1000200212102002,
|
||||
1000200010102002,
|
||||
1000201210102000,
|
||||
2222222222222222,
|
||||
200300202020,
|
||||
1002201000002002,
|
||||
1022201000002022,
|
||||
1011201000002002,
|
||||
1022201000222020,
|
||||
|
||||
#GOGOEND
|
||||
|
||||
|
||||
#END
|
||||
|
||||
|
||||
COURSE:Hard
|
||||
LEVEL:7
|
||||
BALLOON:5,3,5,3
|
||||
SCOREINIT:510
|
||||
SCOREDIFF:128
|
||||
|
||||
|
||||
#START
|
||||
|
||||
|
||||
30000303,
|
||||
0010200010111010,
|
||||
30000303,
|
||||
00101120,
|
||||
1011101000002000,
|
||||
10210122,
|
||||
1011100010002020,
|
||||
10210022,
|
||||
1011101000002020,
|
||||
00211020,
|
||||
1011100010001000,
|
||||
2022202020222000,
|
||||
1011101000002000,
|
||||
10210122,
|
||||
1011100010002010,
|
||||
00210120,
|
||||
1011100010002010,
|
||||
0000202022202000,
|
||||
1011100010002010,
|
||||
0020002010101110,
|
||||
10101101,
|
||||
01011010,
|
||||
20202202,
|
||||
02022020,
|
||||
1000101010111010,
|
||||
0000201020002220,
|
||||
2022202010001010,
|
||||
10021120,
|
||||
02,
|
||||
02020200,//30
|
||||
|
||||
#GOGOSTART
|
||||
1000201000222000,
|
||||
1000201011101000,
|
||||
1000202220002000,
|
||||
1000201000111000,
|
||||
1000201000222000,
|
||||
1000202022202000,
|
||||
7000008010102022,
|
||||
02020120,
|
||||
1212,
|
||||
1000201000222000,
|
||||
11201025,
|
||||
000000000000000000000008000000000000200000000000,
|
||||
70801111,
|
||||
000300202020,
|
||||
30230020,
|
||||
32230020,
|
||||
32230020,
|
||||
32230021,//48
|
||||
|
||||
#GOGOEND
|
||||
0212,
|
||||
10201121,
|
||||
01201020,
|
||||
1010111000200000,
|
||||
1000101000000022,
|
||||
20220102,
|
||||
1000200010002022,
|
||||
2000002000002022,
|
||||
200000000000000000500000000000000000000000000008,
|
||||
0000200020002022,
|
||||
2212,
|
||||
10110000,
|
||||
10120200,
|
||||
1000101000200022,
|
||||
20201225,
|
||||
000000000000000008000000000000000000200000000000,
|
||||
1000222022202050,
|
||||
000000000000000008000000000000000000200000200000,
|
||||
2220200022202050,
|
||||
000000000000000008000000000000200200200000000000,
|
||||
10101101,
|
||||
01011010,
|
||||
20202202,
|
||||
02022020,
|
||||
1000101020222020,
|
||||
1011101020020020,
|
||||
1011100010001050,
|
||||
000000000000000000000000000000000000000000000008,
|
||||
0000001020001011,
|
||||
0020002000200011,//78
|
||||
|
||||
#GOGOSTART
|
||||
1000201000222000,
|
||||
1000202022202000,
|
||||
1000202220002000,
|
||||
1000201000111000,
|
||||
1000201000222000,
|
||||
1000202022202000,
|
||||
7000008010102022,
|
||||
02020120,
|
||||
1212,
|
||||
1000201000222000,
|
||||
11201025,
|
||||
000000000000000000000008000000000000200000000000,
|
||||
70801111,
|
||||
000300202020,
|
||||
30230020,
|
||||
32230020,
|
||||
32230020,
|
||||
3020203000222020,//96
|
||||
|
||||
#GOGOEND
|
||||
,
|
||||
,
|
||||
,
|
||||
#END
|
||||
|
||||
COURSE:Normal
|
||||
LEVEL:5
|
||||
BALLOON:5,3,2
|
||||
SCOREINIT:580,3030
|
||||
SCOREDIFF:158
|
||||
|
||||
#START
|
||||
30000303,
|
||||
0200,
|
||||
30000303,
|
||||
0000700000000800,
|
||||
10110020,
|
||||
10110202,
|
||||
20202022,
|
||||
0002,
|
||||
20110000,
|
||||
0222,
|
||||
1212,
|
||||
10110000,
|
||||
10110020,
|
||||
10110202,
|
||||
20202022,
|
||||
0002,
|
||||
10201022,
|
||||
00220010,
|
||||
10201022,
|
||||
02020000,
|
||||
10101101,
|
||||
01011010,
|
||||
20202202,
|
||||
02022020,
|
||||
10110022,
|
||||
0220,
|
||||
10111015,
|
||||
000000000000000000000000000000000000000000000008,
|
||||
,
|
||||
02020200,//30
|
||||
|
||||
#GOGOSTART
|
||||
10220110,
|
||||
10220110,
|
||||
10201015,
|
||||
000000000000000000000008000000000000200000000000,
|
||||
10220110,
|
||||
10220110,
|
||||
5,
|
||||
000000000008000000000000000000000000000000000000,
|
||||
1212,
|
||||
10220110,
|
||||
10201015,
|
||||
000000000000000000000008000000000000000000000000,
|
||||
70801111,
|
||||
0300,
|
||||
30030000,
|
||||
30030000,
|
||||
30030000,
|
||||
40040001,//48
|
||||
|
||||
#GOGOEND
|
||||
0212,
|
||||
10201001,
|
||||
0212,
|
||||
10110200,
|
||||
10110000,
|
||||
10110202,
|
||||
20202022,
|
||||
0002,
|
||||
100000000000000000500000000000000000000000000008,
|
||||
0222,
|
||||
11,
|
||||
10110000,
|
||||
10110100,
|
||||
10110202,
|
||||
20202025,
|
||||
000000000000000008000000000000000000200000000000,
|
||||
20201015,
|
||||
000000000000000008000000000000000000200000000000,
|
||||
10102015,
|
||||
000000000000000008000000000000000000000000000000,
|
||||
10101101,
|
||||
01011010,
|
||||
20202202,
|
||||
02022020,
|
||||
10110022,
|
||||
2200,
|
||||
10101015,
|
||||
000000000000000000000000000000000000000000000008,
|
||||
,
|
||||
02020200,//78
|
||||
|
||||
#GOGOSTART
|
||||
10220110,
|
||||
10220110,
|
||||
10201015,
|
||||
000000000000000000000008000000000000200000000000,
|
||||
10220110,
|
||||
10220110,
|
||||
5,
|
||||
000000000008000000000000000000000000000000000000,
|
||||
1212,
|
||||
10220110,
|
||||
10201015,
|
||||
000000000000000000000008000000000000000000000000,
|
||||
70801111,
|
||||
0300,
|
||||
30030000,
|
||||
30030000,
|
||||
30030000,
|
||||
40040102,//96
|
||||
|
||||
#GOGOEND
|
||||
,
|
||||
,
|
||||
,
|
||||
#END
|
||||
|
||||
COURSE:Easy
|
||||
LEVEL:4
|
||||
BALLOON:2,2
|
||||
SCOREINIT:580,5060
|
||||
SCOREDIFF:188
|
||||
|
||||
#START
|
||||
30000303,
|
||||
,
|
||||
30000303,
|
||||
,
|
||||
10010000,
|
||||
10010000,
|
||||
10001005,
|
||||
000000000008000000000000000000000000000000000000,
|
||||
20020000,
|
||||
0220,
|
||||
11,
|
||||
20020000,
|
||||
10010000,
|
||||
10010000,
|
||||
10001005,
|
||||
000000000000000008000000000000000000000000000000,
|
||||
20002005,
|
||||
000000000000000008000000000000000000000000000000,
|
||||
20002005,
|
||||
000000000000000000000008000000000000000000000000,
|
||||
1110,
|
||||
01001000,
|
||||
1110,
|
||||
01001000,
|
||||
10010005,
|
||||
000000000000000000000000000000000008000000000000,
|
||||
10101005,
|
||||
000000000000000000000000000000000000000000000008,
|
||||
,
|
||||
02020200,//30
|
||||
|
||||
#GOGOSTART
|
||||
10010000,
|
||||
20020010,
|
||||
10001005,
|
||||
000000000000000000000008000000000000000000000000,
|
||||
10010000,
|
||||
20020010,
|
||||
5,
|
||||
000000000008000000000000000000000000000000000000,
|
||||
1222,
|
||||
10010000,
|
||||
10202005,
|
||||
000000000000000000000008000000000000000000000000,
|
||||
70801002,
|
||||
0300,
|
||||
30030000,
|
||||
30030000,
|
||||
30030000,
|
||||
40040001,//48
|
||||
|
||||
#GOGOEND
|
||||
0202,
|
||||
00200001,
|
||||
0202,
|
||||
10010000,
|
||||
10010000,
|
||||
10010000,
|
||||
10001005,
|
||||
000000000000000008000000000000000000000000000000,
|
||||
20020000,
|
||||
0220,
|
||||
11,
|
||||
20020000,
|
||||
10010000,
|
||||
10010000,
|
||||
10001005,
|
||||
000000000000000008000000000000000000000000000000,
|
||||
20002005,
|
||||
000000000000000008000000000000000000000000000000,
|
||||
20002005,
|
||||
000000000000000000000008000000000000000000000000,
|
||||
1110,
|
||||
01001000,
|
||||
1110,
|
||||
01001000,
|
||||
10010020,
|
||||
2200,
|
||||
10101005,
|
||||
000000000000000000000000000000000000000000000008,
|
||||
,
|
||||
02020200,//78
|
||||
|
||||
#GOGOSTART
|
||||
10010000,
|
||||
20020010,
|
||||
10001005,
|
||||
000000000000000000000008000000000000000000000000,
|
||||
10010000,
|
||||
20020010,
|
||||
5,
|
||||
000000000008000000000000000000000000000000000000,
|
||||
1222,
|
||||
10010000,
|
||||
10202005,
|
||||
000000000000000000000008000000000000000000000000,
|
||||
70801002,
|
||||
0300,
|
||||
30030000,
|
||||
30030000,
|
||||
30030000,
|
||||
40040002,//96
|
||||
|
||||
#GOGOEND
|
||||
,
|
||||
,
|
||||
,
|
||||
#END
|
||||
Reference in New Issue
Block a user