This commit is contained in:
2026-03-04 23:59:27 +09:00
parent 6e0312f5b4
commit 4b4e2b8c98
1128 changed files with 668765 additions and 0 deletions

398
tja/1014.tja Normal file
View File

@@ -0,0 +1,398 @@
//TJADB Project
TITLE:Hold me tight
TITLEJA:Hold me tight
SUBTITLE:--Tatsh a.k.a. Zeami feat. musica
SUBTITLEJA:太鼓 de タイムトラベル90's / Tatsh&musica with パークマンサー
BPM:155
WAVE:Hold me tight.ogg
OFFSET:-1.707
DEMOSTART:55.198
COURSE:Oni
LEVEL:8
BALLOON:39
SCOREINIT:540
SCOREDIFF:110
#START
#MEASURE 1/4
2211,
#MEASURE 4/4
100000000000000000000000200000000000000000000000,
100000000000100000000000200000000000100000000000,
100000000000000000000000200000000000000000000000,
100000000000100000000000200000000000100000000000,
100000000000000000000000200000000000000000000000,
100000000000100000000000200000000000100000000000,
100000000000000000000000200000000000000000000000,
100000000000100000000000200200200200100100100100,
#GOGOSTART
100000000100100000200000100000100100200000100100,
100000000100200000100000200000100200200000100100,
100000000100100000200000100000100100200000100100,
100000000100200000100000200000100200200000100100,
100000200200100000200000100000200200100000200000,
100000200200100000100000200200100000200000100000,
300000200200200200200000300000200200200200100000,
100200200200100000200200100000200000300000000000,
#GOGOEND
100000100100100000100100100000200200100000200000,
100000100100100000100100100000200200200000100000,
100000100100100000100100100000200200100000200000,
100000100100100000100100100000200200200000100000,
100000100100100000100100100000200200100000200000,
100000100100100000100100100000200200200000100000,
300000100100100000100000200000100100100000100000,
300000100100100000100000200000100100200200100100,
100000100100200000100000100000100200000200100000,
200000100000200200100000100000200100000100200000,
100000100100200000100000100000100200000200100000,
200000100000200200100000100000200100000100200000,
300000200200100000300000200200100000500000000000,
000000000008000000000000200000100100200200100000,
300000200200100000300000200200100000500000000000,
000000000000000000000000000000000008000000000000,
7,
0,
8,
#GOGOSTART
300000100100200000100100100000100100200100100000,
300000100100200000100100100000100100200200100000,
300000100100200000100100100000100200200200500000,
000000000000000000000000000000000008000000000000,
100100100100200000100100100000200200200000100000,
100100100200200000100100100000200200200000100000,
100100200200200000100100100000200200200000100000,
100200200200200000100100100000200200200200100000,
300000100100200000100100100000100100200100100000,
300000100100200000100100100000100100200200100000,
300000100100200000100100100000100200200200500000,
000000000000000008000000100000200100000100200000,
100000000000000000500000000000000000000000000000,
000000000008000000100000100000200100000100200000,
500000000000000008000000600000000008000000300000,
000000200000100100200000100000200000100100200000,
100000200100000100200000100200200200100000200000,
100000200100000100200000100200200200100000200000,
300000200200100000200000300000200200100000600000,
000000000000000000000000000000000008000000000000,
100000200100000100200000100200200200100000200000,
100000200100000100200000100200200200100000200000,
300000200200100000200000300000200200100000600000,
000000000000000000000000000000000000000008000000,
#GOGOEND
300000200200100000200200100000200000100000200000,
300000200200100100200200100000200000100000200000,
300000200200100100200200100100200000100000200000,
300000200200100100200200100100200200100000200000,
#GOGOSTART
300000200100000100200000400000200100000100200000,
300000200100000100200000400000200100000100200000,
300000200200200200200000300000200200200200500000,
000000000000000000000000000000000000000008000000,
#GOGOEND
300000000000000000000000000000000000000000000000,
#END
COURSE:Hard
LEVEL:6
BALLOON:25,10,10,10
SCOREINIT:790
SCOREDIFF:220
#START
#MEASURE 1/4
,
#MEASURE 4/4
100000000000000000000000200000000000000000000000,
100000000000100000000000200000000000000000000000,
100000000000000000000000200000000000000000000000,
100000000000100000000000200000000000000000000000,
100000000000000000000000200000000000000000000000,
100000000000100000000000200000000000000000000000,
100000000000000000000000200000000000000000000000,
100000000000100000000000200000000000000000000000,
#GOGOSTART
100000000000100000000000100000200200200000000000,
100000000000100000000000100000200200200000000000,
100000000000100000000000100000200200200000000000,
100000000000100000000000100000200200200000000000,
100000200000100000200000100000200000100000200000,
000000200000100000000000200000100000000000000000,
300000000000000000000000300000000000000000000000,
300000000000300000000000300000000000400000000000,
#GOGOEND
100000000000100000000000100000100100100000100000,
100000000000100000000000100000200000200000100000,
100000000000100000000000100000100100100000100000,
100000000000100000000000100000200000200000100000,
100000000000100000000000100000100100100000100000,
100000000000100000000000100000200000200000100000,
300000000000000000000000000000000000000000000000,
300000000000000000000000000000000000000000000000,
100000100100100000000000100000100000000000100000,
100000100000100000000000200000000000200000000000,
100000100100100000000000100000100000000000100000,
100000100000100000000000200000000000200000000000,
300000000000000000300000000000000000500000000000,
000000000008000000000000200000000000200000000000,
300000000000000000300000000000000000500000000000,
000000000000000000000000000000000008000000000000,
700000000000000000000000000000000000000000000000,
000000000000000000000000000000000000000000000000,
800000000000000000000000000000000000000000000000,
#GOGOSTART
100000000000100000100100100000100000100000000000,
100000000000100000100100100000100000100000000000,
100000000000100000100100100000100000100000700000,
100000000000000000000000000000000000800000000000,
100000100100100000000000200000200000200000000000,
100000100100100000000000200000200000200000000000,
100000100100100000000000100000100100100000000000,
100000100100100000100000200000000000200000000000,
100000000000100000100100100000100000100000000000,
100000000000100000100100100000100000100000000000,
100000000000100000100100100000100000100000700000,
100000000000000000000000000000000000800000000000,
100000000000000000500000000000000000000000000000,
000000000008000000000000000000000000000000000000,
300000000000000000000000300000000000000000700000,
100000000000000000000000000000000000800000000000,
100000000100000000100000000000200200200000000000,
100000000100000000100000000000200200200000000000,
300000000000000000000000300000000000000000600000,
000000000000000000000000000008000000000000000000,
100000000100000000100000000000200200200000000000,
100000000100000000100000000000200200200000000000,
300000000000000000000000300000000000000000600000,
000000000000000000000000000008000000000000000000,
#GOGOEND
100000100000100000100100100000100000200000000000,
100000100000100000100100100000100000200000000000,
100000100000100000100100100000100000200000000000,
100000100000100000100100100000100000200000000000,
#GOGOSTART
100000000100000000100000200000000200000000200000,
100000000100000000100000200000000200000000200000,
300000000000000000000000300000000000000000600000,
000000000000000000000000000000000000000008000000,
#GOGOEND
#END
COURSE:Normal
LEVEL:6
SCOREINIT:910
SCOREDIFF:295
#START
#MEASURE 1/4
,
#MEASURE 4/4
100000000000000000000000000000000000000000000000,
200000000000000000000000000000000000000000000000,
100000000000000000000000000000000000000000000000,
200000000000000000000000000000000000000000000000,
100000000000000000000000000000000000000000000000,
200000000000000000000000000000000000000000000000,
100000000000000000000000000000000000000000000000,
200000000000000000000000000000000000000000000000,
#GOGOSTART
100000000000000000000000000000200000200000000000,
100000000000000000000000000000200000200000000000,
100000000000100000000000000000200000200000000000,
100000000000100000000000000000200000200000000000,
100000100000100000000000100000100000100000000000,
000000100000100000000000100000100000000000000000,
300000000000000000000000300000000000000000000000,
300000000000300000000000300000000000400000000000,
#GOGOEND
100000000000100000000000100000000000100000000000,
100000000000100000000000100000000000100000100000,
100000000000100000000000100000000000100000000000,
100000000000100000000000100000000000100000100000,
100000000000100000000000100000000000100000000000,
100000000000100000000000100000000000100000100000,
300000000000000000000000000000000000000000000000,
300000000000000000000000000000000000000000000000,
100000000000100000000000100000100000000000100000,
100000000000100000000000200000000000200000000000,
100000000000100000000000100000100000000000100000,
100000000000100000000000200000000000200000000000,
300000000000000000300000000000000000500000000000,
000000000008000000000000200000000000200000000000,
300000000000000000300000000000000000500000000000,
000000000000000000000000000000000008000000000000,
700000000000000000000000000000000000000000000000,
000000000000000000000000000000000000000000000000,
800000000000000000000000000000000000000000000000,
#GOGOSTART
100000000000000000100000100000000000100000000000,
100000000000000000100000100000000000100000000000,
100000000000100000100000000000100000000000700000,
000000000000000000000000000000000000800000000000,
100000100000100000000000200000000000200000000000,
100000100000100000000000200000000000200000000000,
100000100000100000000000100000100000100000000000,
100000100000100000100000200000000000200000000000,
100000000000000000100000100000000000100000000000,
100000000000000000100000100000000000100000000000,
100000000000100000100000000000100000000000700000,
000000000000000000000000000000000000800000000000,
100000000000000000500000000000000000000000000000,
000000000008000000000000000000000000000000000000,
300000000000000000000000300000000000000000700000,
800000000000000000000000000000000000800000000000,
100000000100000000100000000000000000000000000000,
100000000100000000100000000000000000000000000000,
300000000000000000000000300000000000000000600000,
000000000000000000000000000008000000000000000000,
100000000100000000100000000000000000000000000000,
100000000100000000100000000000000000000000000000,
300000000000000000000000300000000000000000600000,
000000000000000000000000000008000000000000000000,
#GOGOEND
100000100000100000100000100000100000200000000000,
100000100000100000100000100000100000200000000000,
100000100000100000100000100000100000200000000000,
100000100000100000100000100000100000200000000000,
#GOGOSTART
100000000100000000100000200000000000000000000000,
100000000100000000100000200000000000000000000000,
300000000000000000000000300000000000000000600000,
000000000000000000000000000000000000000008000000,
#GOGOEND
#END
COURSE:Easy
LEVEL:4
SCOREINIT:770
SCOREDIFF:325
#START
#MEASURE 1/4
,
#MEASURE 4/4
100000000000000000000000000000000000000000000000,
200000000000000000000000000000000000000000000000,
100000000000000000000000000000000000000000000000,
200000000000000000000000000000000000000000000000,
100000000000000000000000000000000000000000000000,
200000000000000000000000000000000000000000000000,
100000000000000000000000000000000000000000000000,
200000000000000000000000000000000000000000000000,
#GOGOSTART
100000000000000000000000000000000000000000000000,
100000000000000000000000000000000000000000000000,
100000000000100000000000000000000000000000000000,
100000000000100000000000000000000000000000000000,
100000000000100000000000100000000000100000000000,
000000000000100000000000100000000000000000000000,
300000000000000000000000300000000000000000000000,
300000000000300000000000300000000000000000000000,
#GOGOEND
100000000000000000000000100000000000000000000000,
100000000000000000000000100000000000100000000000,
100000000000000000000000100000000000000000000000,
100000000000000000000000100000000000100000000000,
100000000000000000000000100000000000000000000000,
100000000000000000000000100000000000100000000000,
300000000000000000000000000000000000000000000000,
300000000000000000000000000000000000000000000000,
100000000000100000000000000000000000000000000000,
100000000000100000000000000000000000000000000000,
100000000000100000000000000000000000000000000000,
100000000000100000000000000000000000000000000000,
300000000000000000300000000000000000500000000000,
000000000000000000000008000000000000000000000000,
300000000000000000300000000000000000500000000000,
000000000000000000000000000000000008000000000000,
700000000000000000000000000000000000000000000000,
000000000000000000000000000000000000000000000000,
800000000000000000000000000000000000000000000000,
#GOGOSTART
100000000000000000000000100000000000100000000000,
100000000000000000000000100000000000100000000000,
100000000000000000000000000000000000000000700000,
000000000000000000000000000000000000800000000000,
100000000000100000000000200000000000000000000000,
100000000000100000000000200000000000000000000000,
100000000000100000000000100000000000100000000000,
100000000000100000000000200000000000000000000000,
100000000000000000000000100000000000100000000000,
100000000000000000000000100000000000100000000000,
100000000000000000000000000000000000000000700000,
000000000000000000000000000000000000800000000000,
100000000000000000500000000000000000000000000000,
000000000008000000000000000000000000000000000000,
300000000000000000000000300000000000000000700000,
000000000000000000000000000000000000800000000000,
100000000000000000100000000000000000000000000000,
100000000000000000100000000000000000000000000000,
300000000000000000000000300000000000000000600000,
000000000000000000000000000008000000000000000000,
100000000000000000100000000000000000000000000000,
100000000000000000100000000000000000000000000000,
300000000000000000000000300000000000000000600000,
000000000000000000000000000008000000000000000000,
#GOGOEND
100000000000100000000000100000000000200000000000,
100000000000100000000000100000000000200000000000,
100000000000100000000000100000000000200000000000,
100000000000100000000000100000000000200000000000,
#GOGOSTART
100000000000000000100000200000000000000000000000,
100000000000000000100000200000000000000000000000,
300000000000000000000000300000000000000000600000,
000000000000000000000000000000000000000008000000,
#GOGOEND
#END