This commit is contained in:
2026-03-04 23:59:27 +09:00
parent 6e0312f5b4
commit 4b4e2b8c98
1128 changed files with 668765 additions and 0 deletions

778
tja/103.tja Normal file
View File

@@ -0,0 +1,778 @@
//TJADB Project
TITLE:Sunset Runaway
TITLEJA:Sunset Runaway
SUBTITLE:--Ryuichi Takada/Critical Velocity
SUBTITLEJA:「クリティカルベロシティ」より
BPM:148.94
WAVE:Sunset Runaway.ogg
OFFSET:-1.674
DEMOSTART:73.353
//Shinuchi: 7980/4550/2200/1530
COURSE:Oni
LEVEL:9
BALLOON:24,14,9,9,16
SCOREINIT:560,1630
SCOREDIFF:133
#START
#MEASURE 2/4
#SCROLL 2.58
0,
#BPMCHANGE 144.95
#SCROLL 2.65
0,
#BPMCHANGE 159.00
#SCROLL 2.4
0,
#MEASURE 4/4
#BPMCHANGE 226.44
#SCROLL 1.7
0
#BPMCHANGE 123.56
#SCROLL 3.1
0,
#MEASURE 2/4
#BPMCHANGE 153.22
#SCROLL 2.5
0,
0,
#BPMCHANGE 148.42
#SCROLL 2.58
0, //7
#BPMCHANGE 159.98
#SCROLL 2.4
0,
#BPMCHANGE 154.05
#SCROLL 2.48
0,
0,
0,
#BPMCHANGE 152.15
#SCROLL 2.53
0,
#BPMCHANGE 155.90
#SCROLL 2.45
0,
#BPMCHANGE 154.14
#SCROLL 2.48
0,
#BPMCHANGE 154.00
070000, //15
0,
0008,
0,
#MEASURE 6/4
#BPMCHANGE 130.07
#SCROLL 2.95
03000000
#BPMCHANGE 169.60
#SCROLL 2.25
0000000000000000, //19
#MEASURE 4/4
#BPMCHANGE 154
#SCROLL 1
1002001010020010,
1002001010020010,
1002001210020010,
1002001020020010,
1002001210020010,
1002001022222222,
1001002100005000,
000000000008000000000000100000000100100000100000,
#MEASURE 3/4
200100200010,
#MEASURE 4/4
7000000000080011, //29
200000200000200000200111,
20212021,
20212121,
2000200040222000,
2222102010112022,
1011202210212020,
2222102200112022,
1011202211212020,
#BPMCHANGE 153.49
2222102000020220,
#MEASURE 6/4
#BPMCHANGE 157.42
#SCROLL 0.97
0000102212021111
#BPMCHANGE 148.52
#SCROLL 1.03
20000000, //39
#MEASURE 3/4
#BPMCHANGE 154
#SCROLL 1
101020021122,
#MEASURE 4/4
1021201120121011,
2022101020021122,
1021201120121011,
2022101120221011,
2222101120221011,
2022101120221011,
2222101120221011,
2221001022210010,
#BPMCHANGE 151.79
#SCROLL 1.01
1112002011120020,
#BPMCHANGE 156.27
#SCROLL 0.98
202020200100000000100000400000100100200020002000, //50
#BPMCHANGE 154
#SCROLL 1
#GOGOSTART
700000000000000000000008000000000200000000200000,
1001001020020020,
700000000000000000000008000000000400000000400000,
3003003040040040,
1122002022010110,
1100202011112020,
1111222211112211,
2011112021121200, //58
1111202211212112,
1101202121121010,
2002112020012022,
101010101010200000200200101010101010200100000000,
1122022121210220,
1101202011112211,
2002002010010010,
700008,
100000100100200000200000101010100100200100200000,
#GOGOEND
2011210010010010, //68
1021011110112102,
1020010211211211,
2022021001011200,
#BPMCHANGE 156.96
#SCROLL 0.98
200000100000200100100100201010100100202020100100,
#BPMCHANGE 152.14
#SCROLL 1.01
2211202210012010,
#BPMCHANGE 154.41
#SCROLL 0.99
100100101010202000000400000000000000000000000000, //74
#BPMCHANGE 152.42
#SCROLL 1.01
1011201122212022,
#BPMCHANGE 156.75
#SCROLL 0.98
1111202210112022,
#BPMCHANGE 151.50
#SCROLL 1.01
1011202200212022,
#BPMCHANGE 154
#SCROLL 1
1010210010012011,
2010210010012000,
0012012000120212,
#BPMCHANGE 155.45
#SCROLL 0.99
000000400000000400000000000000000000202020101010,
#BPMCHANGE 145.31
#SCROLL 1.05
2000222211112222, //82
#BPMCHANGE 161.34
#SCROLL 0.95
1122121221120000,
0,
0, //85
#END
COURSE:Hard
LEVEL:8
BALLOON:20,12,8,8,14,17
SCOREINIT:660,2390
SCOREDIFF:163
#START
#MEASURE 2/4
#SCROLL 2.58
0,
#BPMCHANGE 144.95
#SCROLL 2.65
0,
#BPMCHANGE 159.00
#SCROLL 2.4
0,
#MEASURE 4/4
#BPMCHANGE 226.44
#SCROLL 1.7
0
#BPMCHANGE 123.56
#SCROLL 3.1
0,
#MEASURE 2/4
#BPMCHANGE 153.22
#SCROLL 2.5
0,
0,
#BPMCHANGE 148.42
#SCROLL 2.58
0, //7
#BPMCHANGE 159.98
#SCROLL 2.4
0,
#BPMCHANGE 154.05
#SCROLL 2.48
0,
0,
0,
#BPMCHANGE 152.15
#SCROLL 2.53
0,
#BPMCHANGE 155.90
#SCROLL 2.45
0,
#BPMCHANGE 154.14
#SCROLL 2.48
0,
#BPMCHANGE 154.00
070000, //15
0,
0008,
0,
#MEASURE 6/4
#BPMCHANGE 130.07
#SCROLL 2.95
03000000
#BPMCHANGE 169.60
#SCROLL 2.25
0000000000000000, //19
#MEASURE 4/4
#BPMCHANGE 154
#SCROLL 1
1002001010020010,
1002001020020010,
1002001010020010,
1002001020020010,
1002001010020010,
1002001020020020,
10040050,
000000000008000000000000100000000100100000100000,
#MEASURE 3/4
200010002000000100,
#MEASURE 4/4
7000000000080000, //29
20202021,
20212021,
20212121,
2000200020222000,
2222002000102020,
1001002010010020,
2222002200102020,
1001002010010020,
#BPMCHANGE 153.49
2222002000020220,
#MEASURE 6/4
#BPMCHANGE 157.42
#SCROLL 0.97
0000101022022222
#BPMCHANGE 148.52
#SCROLL 1.03
20000000, //39
#MEASURE 3/4
#BPMCHANGE 154
#SCROLL 1
100020020010,
#MEASURE 4/4
1001001020020020,
1000100020020020,
1001001020020020,
1122,
1011100020222000,
1011100020222000,
1011100020222000,
1111001011110010,
#BPMCHANGE 151.79
#SCROLL 1.01
2222002022220020,
#BPMCHANGE 156.27
#SCROLL 0.98
1111001040000000, //50
#BPMCHANGE 154
#SCROLL 1
#GOGOSTART
700000000000000000000008000000000200000000200000,
1001001020020020,
700000000000000000000008000000000400000000400000,
3003003040040040,
1111000000010110,
1100002011102020,
1110202011102020,
2011102020020100, //58
1111002002010110,
1100201001001010,
2002002020040000,
1010202011102200,
1111022201110220,
1100201001001110,
2002002010010010,
700008,
1011101011102220,
#GOGOEND
2000010010010010, //68
1022011110102002,
0020010110110110,
2022022001010200,
#BPMCHANGE 156.96
#SCROLL 0.98
2010222020102220,
#BPMCHANGE 152.14
#SCROLL 1.01
2010202010011010,
#BPMCHANGE 154.41
#SCROLL 0.99
1022220400000000, //74
#BPMCHANGE 152.42
#SCROLL 1.01
1011101011111000,
#BPMCHANGE 156.75
#SCROLL 0.98
1011101010010010,
#BPMCHANGE 151.50
#SCROLL 1.01
1011101011111011,
#BPMCHANGE 154
#SCROLL 1
1010010010010000,
2010010010010000,
0022022000110112,
#BPMCHANGE 155.45
#SCROLL 0.99
0040040000000000,
#BPMCHANGE 145.31
#SCROLL 1.05
900000000000000000000000000000000009000000000008, //82
#BPMCHANGE 161.34
#SCROLL 0.95
0000000000040000,
0,
0, //85
#END
COURSE:Normal
LEVEL:6
BALLOON:14,8,6,6,8,12,30,17,12,12
SCOREINIT:1020,5220
SCOREDIFF:290
#START
#MEASURE 2/4
#SCROLL 2.58
0,
#BPMCHANGE 144.95
#SCROLL 2.65
0,
#BPMCHANGE 159.00
#SCROLL 2.4
0,
#MEASURE 4/4
#BPMCHANGE 226.44
#SCROLL 1.7
0
#BPMCHANGE 123.56
#SCROLL 3.1
0,
#MEASURE 2/4
#BPMCHANGE 153.22
#SCROLL 2.5
0,
0,
#BPMCHANGE 148.42
#SCROLL 2.58
0, //7
#BPMCHANGE 159.98
#SCROLL 2.4
0,
#BPMCHANGE 154.05
#SCROLL 2.48
0,
0,
0,
#BPMCHANGE 152.15
#SCROLL 2.53
0,
#BPMCHANGE 155.90
#SCROLL 2.45
0,
#BPMCHANGE 154.14
#SCROLL 2.48
0,
#BPMCHANGE 154.00
070000, //15
0,
0008,
0,
#MEASURE 6/4
#BPMCHANGE 130.07
#SCROLL 2.95
0
#BPMCHANGE 169.60
#SCROLL 2.25
00, //19
#MEASURE 4/4
#BPMCHANGE 154
#SCROLL 1
1001000010010000,
1001000020020000,
1001000010010000,
1001000020020000,
1001000010010000,
1001000020020000,
10040050,
000000000008000000000000000000000000000000000000,
#MEASURE 3/4
2120,
#MEASURE 4/4
7008, //29
2222,
2222,
2222,
2240,
500000000008000000400000000000000000200000000000,
1001001000000000,
500000000008000000400000000000000000200000000000,
1001001000000000,
#BPMCHANGE 153.49
500000000008000000400000000000000200000200000000,
#MEASURE 6/4
#BPMCHANGE 157.42
#SCROLL 0.97
00111022
#BPMCHANGE 148.52
#SCROLL 1.03
2000, //39
#MEASURE 3/4
#BPMCHANGE 154
#SCROLL 1
100020020000,
#MEASURE 4/4
1001001010000000,
1000100020020000,
1001001010000000,
1122,
11102020,
1122,
11102020,
0001001000010010,
#BPMCHANGE 151.79
#SCROLL 1.01
0002002000020020,
#BPMCHANGE 156.27
#SCROLL 0.98
0001001040000000, //50
#BPMCHANGE 154
#SCROLL 1
#GOGOSTART
700000000000000000000008000000000200000000200000,
1001001020020020,
700000000000000000000008000000000200000000200000,
1001001020020020,
3000000000010100,
10020020,
10201120,
2000002020020000, //58
3000000000010100,
1000001001001000,
2002002020020000,
11201120,
7008,
4,
0002002020020020,
900000000000000000090000,
080000000000000000000000,
#GOGOEND
0, //68
#SCROLL 1.5
7,
0,
0008,
#BPMCHANGE 156.96
#SCROLL 2
7,
#BPMCHANGE 152.14
#SCROLL 2.5
000000000000000000000000080000000000700000000000,
#BPMCHANGE 154.41
000000000000000000080000, //74
#BPMCHANGE 152.42
#SCROLL 1.01
1001002000001000,
#BPMCHANGE 156.75
#SCROLL 0.98
1001001000002000,
#BPMCHANGE 151.50
#SCROLL 1.01
1001002000001000,
#BPMCHANGE 154
#SCROLL 1
0010010010010000,
0020020020020000,
0010010000100100,
#BPMCHANGE 155.45
#SCROLL 0.99
0040040000000000,
#BPMCHANGE 145.31
#SCROLL 1.05
900000000000000000000000000000000009000000000008, //82
#BPMCHANGE 161.34
#SCROLL 0.95
0000000000040000,
0,
0, //85
#END
COURSE:Easy
LEVEL:4
BALLOON:12,6,4,4,6,21,24,14,9,9
SCOREINIT:1000,9410
SCOREDIFF:385
#START
#MEASURE 2/4
#SCROLL 2.58
0,
#BPMCHANGE 144.95
#SCROLL 2.65
0,
#BPMCHANGE 159.00
#SCROLL 2.4
0,
#MEASURE 4/4
#BPMCHANGE 226.44
#SCROLL 1.7
0
#BPMCHANGE 123.56
#SCROLL 3.1
0,
#MEASURE 2/4
#BPMCHANGE 153.22
#SCROLL 2.5
0,
0,
#BPMCHANGE 148.42
#SCROLL 2.58
0, //7
#BPMCHANGE 159.98
#SCROLL 2.4
0,
#BPMCHANGE 154.05
#SCROLL 2.48
0,
0,
0,
#BPMCHANGE 152.15
#SCROLL 2.53
0,
#BPMCHANGE 155.90
#SCROLL 2.45
0,
#BPMCHANGE 154.14
#SCROLL 2.48
0,
#BPMCHANGE 154.00
070000, //15
0,
0008,
0,
#MEASURE 6/4
#BPMCHANGE 130.07
#SCROLL 2.95
0
#BPMCHANGE 169.60
#SCROLL 2.25
00, //19
#MEASURE 4/4
#BPMCHANGE 154
#SCROLL 1
11,
12,
11,
12,
11,
12,
00040050,
000000000008000000000000000000000000000000000000,
#MEASURE 3/4
3,
#MEASURE 4/4
7008, //29
2220,
2220,
2222,
2220,
10020000,
10010000,
10020000,
10010000,
#BPMCHANGE 153.49
1000002000040000,
#MEASURE 6/4
#BPMCHANGE 157.42
#SCROLL 0.97
00
#BPMCHANGE 148.52
#SCROLL 1.03
0, //39
#MEASURE 3/4
#BPMCHANGE 154
#SCROLL 1
120,
#MEASURE 4/4
11,
1120,
11,
1122,
1122,
1122,
1122,
0001000000010000,
#BPMCHANGE 151.79
#SCROLL 1.01
0002000000020000,
#BPMCHANGE 156.27
#SCROLL 0.98
0001000040000000, //50
#BPMCHANGE 154
#SCROLL 1
#GOGOSTART
78,
12,
78,
12,
3,
4,
1210,
1210, //58
3,
4,
2222,
1212,
7008,
4,
090000,
000000000009,
08,
#GOGOEND
0, //68
#SCROLL 1.5
7,
0,
0008,
#BPMCHANGE 156.96
#SCROLL 2
7,
#BPMCHANGE 152.14
#SCROLL 2.5
000000000000000000000000080000000000700000000000,
#BPMCHANGE 154.41
000000000000000000080000, //74
#BPMCHANGE 152.42
#SCROLL 1.01
11,
#BPMCHANGE 156.75
#SCROLL 0.98
12,
#BPMCHANGE 151.50
#SCROLL 1.01
10020000,
#BPMCHANGE 154
#SCROLL 1
0050000000080000,
0050000000080000,
0010010000100100,
#BPMCHANGE 155.45
#SCROLL 0.99
0020020000000000,
#BPMCHANGE 145.31
#SCROLL 1.05
900000000000000000000000000000000009000000000008, //82
#BPMCHANGE 161.34
#SCROLL 0.95
0000000000040000,
0,
0, //85
#END