This commit is contained in:
2026-03-04 23:59:27 +09:00
parent 6e0312f5b4
commit 4b4e2b8c98
1128 changed files with 668765 additions and 0 deletions

427
tja/1030.tja Normal file
View File

@@ -0,0 +1,427 @@
//TJADB Project
TITLE:Vampire
TITLEJA:ヴァンパイア
SUBTITLE:--DECO*27 feat. Hatsune Miku
SUBTITLEJA:「アイドルマスター2」より
BPM:164
WAVE:Vampire.ogg
OFFSET:-1.650
DEMOSTART:56.329
COURSE:Oni
LEVEL:8
BALLOON:26
SCOREINIT:1540
SCOREDIFF:0
#START
100000000000200000000000100000000100000000100000,
100000200000000000100000100000000100000000200000,
200000100100200000100100200000100200000100200000,
000000200000200000200000200000100000100000100000,
200000000000100000000000100000200000100000100100,
100000100000100000200000100000000000100000100000,
300000300000400000000000300000300000400000500000,
000000000000000000000000000008000000000000000000,
#GOGOSTART
100000200000100100200000200200100000100000200000,
200000100000200200100000100100200000200000100000,
100100100000100100100000200200200000200200200000,
100000200000100100100000100000200000200000000000,
100000200000100100200000200200100000100000200000,
200000100000200200100000100100200000200000100000,
200200200000100100100000200200200000100100100000,
100000200000100100100000200000200000200000200000,
#GOGOEND
200000000000100000000000100000000100000000100000,
100000100100100000100000200000200000100000100000,
100000200000100000100000100100200000200000200000,
200000100000200000202020200000200000200000200000,
200000000000100000000000100000000100000000100000,
100000100100100000100000200000200000100000100000,
100000200000100000100000100100200000200000200000,
100000200000100000200000300000000000300000200200,
200200100000200200100000200000100000000000200200,
200200100000200200100000200000100000000000200200,
100200100000200000100000200100200000200000100000,
200000200000200200100100200200200000200000200200,
200200100000200200100000200000100000000000200200,
200200100000200200100000200000100000000000200200,
100200100000200000100000200100200000200000100000,
100000200000200000100000100000200000200200100100,
100000000100000000101010200000000000100000100100,
100000000100000000101010200000000000100000000000,
100000100100200000200000100000200000100000200000,
300000200000300000200000400000100100200000000000,
700000000000000000000000000000000000000000000000,
000000000000000000000000800000000000000000000000,
#GOGOSTART
300000000000400000000000100000200100000200100000,
100000200000100000100000100000200100000000100000,
100000100100200000100100200000200200000020200000,
000000200000100100200200200200100100200200200000,
300000000000400000000000100100200000100000200000,
200000100000100100200100200000200000200200100200,
100000100000200000100000200200100100200000500000,
000000000000000000000000000008000000000000000000,
300000000000400000000000200200200200000100100100,
200000100000200000200000200000100000200200200200,
200000100000200200200000100000200000100100100000,
200000100000200200200200200000200000200000200000,
300000000000400000000000100100200000100000200000,
200000100000100100200100200000200000200200100200,
100000100000200000100100200000100000200000500000,
000000000000000000000008
#GOGOEND
000000000000000000000000,
100000000000200000000000100000000100000000100000,
100000200000000000100000100000000100000000100000,
100000100100200000100100200000100200000100200000,
000000200000200000200000100000100000100000100000,
300000200000200000200000300000200000200000200000,
300000200000200000200000300000200000200200200000,
100100100100100100100100100100100100100000600000,
000000000000000000000000000008000000000000000000,
100000000000
#GOGOSTART
400000000000100000200100000200100000,
100000200000100000100000100000200100000000100000,
100000100100200000100100200000200200000020200000,
000000200000200000100000200200100100200200200200,
200000000000400000000000100100200000100000200000,
200000100000100100200100200000200000200200100200,
100000100000200000100000200200100100200000500000,
000000000000000000000000000008000000000000000000,
300000000000400000000000200200200200000100100100,
200000100000200000200000200000100000200200200200,
200000100000200200200000100000200000100100100000,
200000100000200200200200200000200000200000200000,
300000000000400000000000100100200000100000200000,
200000100000100100200100200000200000200200100200,
100000100000200000100100200000100000200000600000,
000000000000000000000000000008000000000000000000,
#GOGOEND
100000000000400000000000100000100000200000200000,
000000300000300000400000400000000000000000000000,
#END
COURSE:Hard
LEVEL:6
BALLOON:20
SCOREINIT:2520
SCOREDIFF:0
#START
100000000000200000000000000000000000000000100000,
000000200000000000000000100000000000000000000000,
100000000000100000000000100000000100000000100000,
000000100000100000100000100000100000100000000000,
100000000000100000000000100000200000100000200000,
100000000000100000200000100000000000100000000000,
300000300000400000000000300000300000400000500000,
000000000000000000000000000080000000000000000000,
#GOGOSTART
100000100000200000200000100000000000100000000000,
200000200000100000100000200000000000200000000000,
100000100000200000000000100000100000200000000000,
100000000000100000000000100000200000200000000000,
100000100000200000200000100000000000100000000000,
200000200000100000100000200000000000200000000000,
200000200000200000000000100000100000100000000000,
100000000000100000000000200000200000200000200000,
#GOGOEND
200000000000100000000000100000000100000000100000,
100000100000100000000000100000100000100000000000,
100000000000100000000000100000100000200000200000,
200000000000200000200000200000000000000000000000,
200000000000100000000000100000000100000000100000,
100000100000100000000000100000100000100000000000,
100000000000100000000000100000000000100000100000,
100000000000100000000000300000000000300000000000,
200000200000200000200000200000100000000000100000,
200000200000200000200000200000100000000000100000,
200000200000200000000000200000200000200000000000,
100000200000200000200000200000000000000000100000,
200000200000200000200000200000100000000000100000,
200000200000200000200000200000100000000000100000,
200000200000200000000000200000200000200000000000,
100000100000200000200000200000000000200000000000,
100000000000000000100100100000000000100000000000,
100000000000000000100100100000000000100000000000,
100000100000200000200000100000200000100000200000,
300000000000300000000000400000000000000000000000,
700000000000000000000000000000000000000000000000,
000000000000000000000800000000000000000000000000,
#GOGOSTART
300000000000400000000000100000000100000000100000,
100000200000000000100000100000000100000000100000,
000000100100100000100100100000000200000000200000,
000000200000200000200000200000000000000000000000,
300000000000400000000000100000200000000000100000,
000000100000200000100000200000000000200000200000,
100000000000200000000000100000100000100000500000,
000000000000000000000000000080000000000000000000,
300000000000400000000000200200200000200000000000,
200000000000200000200000200000000000200000000000,
200000000000200000200000100000000000100000000000,
200000200000200000200000200000000000000000000000,
300000000000400000000000100000200000000000100000,
000000100000200000100000200000000000200000200000,
100000000000200000000000100000100000100000500000,
000000000000000000000080
#GOGOEND
000000000000000000000000,
100000000000200000000000100000000100000000100000,
000000200000000000100000100000000100000000000000,
100000000000100000000000100000000100000000200000,
000000200000200000200000100000100000100000000000,
300000000000200000000000300000000000200000000000,
300000000000200000000000300000000000200000000000,
100000100000100000100000100000100000100000600000,
000000000000000000000000000080000000000000000000,
100000000000
#GOGOSTART
400000000000100000000100000000100000,
100000200000000000100000100000000100000000100000,
000000100100100000100100100000000200000000200000,
000000200000200000200000200000200000200000200000,
200000000000400000000000100000200000000000100000,
000000100000200000100000200000000000200000200000,
100000000000200000000000100000100000100000500000,
000000000000000000000000000080000000000000000000,
300000000000400000000000200200200000200000000000,
200000000000200000200000200000000000200000000000,
200000000000200000200000100000000000100000000000,
200000200000200000200000200000000000000000000000,
300000000000400000000000100000200000000000100000,
000000100000200000100000200000000000200000200000,
100000000000200000000000100000100000100000600000,
000000000000000000000000000080000000000000000000,
#GOGOEND
100000000000400000000000100000100000200000200000,
000000300000300000400000400000000000000000000000,
#END
COURSE:Normal
LEVEL:5
BALLOON:14,8
SCOREINIT:4310
SCOREDIFF:0
#START
100000000000000000000000000000000000000000100000,
000000000000000000000000000000000000000000000000,
100000000000000000000000100000000000000000100000,
000000000000100000000000100000000000000000000000,
100000000000100000000000100000000000100000000000,
100000000000100000100000100000000000000000000000,
300000000000000000000000300000000000000000500000,
000000000000000000000000000080000000000000000000,
#GOGOSTART
100000100000100000000000100000000000000000000000,
200000200000200000000000200000000000000000000000,
100000000000100000000000200000000000200000000000,
100000000000100000000000100000000000000000000000,
100000100000100000000000100000000000000000000000,
200000200000200000000000200000000000000000000000,
100000000000100000000000200000000000200000000000,
100000000000100000000000100000000000000000000000,
#GOGOEND
200000000000000000000000000000000000000000000000,
100000000000000000000000000000000000000000000000,
100000000000000000000000100000000000000000000000,
200000000000200000000000200000000000000000000000,
200000000000000000000000000000000000000000000000,
100000000000000000000000000000000000000000000000,
100000000000000000000000100000000000000000000000,
100000000000000000000000300000000000300000000000,
200000200000200000000000200000000000000000000000,
200000200000200000000000200000000000000000000000,
200000000000200000000000200000000000200000000000,
200000000000200000200000200000000000000000000000,
200000200000200000000000200000000000000000000000,
200000200000200000000000200000000000000000000000,
200000000000200000000000200000000000200000000000,
200000000000200000200000200000000000200000000000,
600000000000000000000000000080000000000000000000,
600000000000000000000000000080000000000000000000,
100000000000100000000000100000000000100000000000,
300000000000300000000000400000000000000000000000,
700000000000000000000000000000000000000000000000,
000000000000000000800000000000000000000000000000,
#GOGOSTART
300000000000400000000000000000000000000000100000,
000000100000000000100000100000000000000000100000,
000000100000100000100000100000000000000000200000,
000000200000200000200000200000000000000000000000,
300000000000400000000000000000000000000000100000,
000000100000100000100000100000000000000000000000,
100000000000100000000000100000100000100000500000,
000000000000000000000000000080000000000000000000,
300000000000400000000000200000000000200000000000,
200000000000200000200000200000000000000000000000,
200000000000000000000000100000000000000000000000,
200000000000200000200000200000000000000000000000,
300000000000400000000000000000000000000000100000,
000000100000100000100000100000000000000000000000,
100000000000100000000000100000100000100000500000,
000000000000000000000080
#GOGOEND
000000000000000000000000,
100000000000200000000000000000000000000000100000,
000000200000000000000000000000000000000000000000,
100000000000000000000000100000000000000000200000,
000000000000200000000000200000000000000000000000,
300000000000000000000000300000000000000000000000,
300000000000000000000000300000000000000000000000,
100000000000100000000000100000100000100000600000,
000000000000000000000000000080000000000000000000,
100000000000
#GOGOSTART
400000000000000000000000000000100000,
000000100000000000100000100000000000000000100000,
000000100000100000100000100000000000000000200000,
000000200000200000200000200000000000000000000000,
200000000000400000000000000000000000000000100000,
000000100000100000100000100000000000000000000000,
100000000000100000000000100000100000100000500000,
000000000000000000000000000080000000000000000000,
300000000000400000000000200000000000200000000000,
200000000000200000200000200000000000000000000000,
200000000000000000000000100000000000000000000000,
200000000000200000200000200000000000000000000000,
300000000000400000000000000000000000000000100000,
000000100000100000100000100000000000000000000000,
100000000000100000000000100000100000100000600000,
000000000000000000000000000080000000000000000000,
#GOGOEND
100000000000000000000000100000000000100000700000,
000000000000000000000000000000800000000000000000,
#END
COURSE:Easy
LEVEL:3
BALLOON:11,6
SCOREINIT:6620
SCOREDIFF:0
#START
100000000000000000000000000000000000000000100000,
000000000000000000000000000000000000000000000000,
100000000000000000000000000000000000000000100000,
000000000000100000000000100000000000000000000000,
100000000000000000000000100000000000000000000000,
100000000000000000000000100000000000000000000000,
300000000000000000000000300000000000000000500000,
000000000000000000000000000080000000000000000000,
#GOGOSTART
100000000000000000000000100000000000000000000000,
100000000000000000000000100000000000000000000000,
100000000000000000000000000000000000000000000000,
100000000000100000000000100000000000000000000000,
100000000000000000000000100000000000000000000000,
100000000000000000000000100000000000000000000000,
100000000000000000000000000000000000000000000000,
100000000000100000000000100000000000000000000000,
#GOGOEND
200000000000000000000000000000000000000000000000,
100000000000000000000000000000000000000000000000,
100000000000000000000000100000000000000000000000,
100000000000000000000000000000000000000000000000,
200000000000000000000000000000000000000000000000,
100000000000000000000000000000000000000000000000,
100000000000000000000000100000000000000000000000,
100000000000000000000000300000000000000000000000,
200000000000200000000000200000000000000000000000,
200000000000200000000000200000000000000000000000,
200000000000000000000000200000000000000000000000,
200000000000200000000000200000000000000000000000,
200000000000200000000000200000000000000000000000,
200000000000200000000000200000000000000000000000,
200000000000000000000000200000000000000000000000,
200000000000200000000000200000000000000000000000,
600000000000000000000000000080000000000000000000,
600000000000000000000000000080000000000000000000,
100000000000000000000000100000000000000000000000,
300000000000300000000000300000000000000000000000,
700000000000000000000000000000000000000000000000,
000000000000000000800000000000000000000000000000,
#GOGOSTART
300000000000400000000000000000000000000000100000,
000000100000000000000000000000000000000000100000,
000000000000100000000000100000000000000000100000,
000000000000100000000000100000000000000000000000,
300000000000400000000000000000000000000000100000,
000000000000100000000000100000000000000000000000,
100000000000000000000000100000000000000000500000,
000000000000000000000000000080000000000000000000,
300000000000400000000000000000000000000000000000,
200000000000200000000000200000000000000000000000,
200000000000000000000000200000000000000000000000,
200000000000200000000000200000000000000000000000,
300000000000400000000000000000000000000000100000,
000000000000100000000000100000000000000000000000,
100000000000100000000000100000000000000000500000,
000000000000000000000080
#GOGOEND
000000000000000000000000,
100000000000000000000000000000000000000000100000,
000000000000000000000000000000000000000000000000,
100000000000000000000000000000000000000000100000,
000000000000000000000000100000000000000000000000,
300000000000000000000000300000000000000000000000,
300000000000000000000000300000000000000000000000,
100000000000100000000000100000000000000000600000,
000000000000000000000000000080000000000000000000,
100000000000
#GOGOSTART
400000000000000000000000000000100000,
000000100000000000000000000000000000000000100000,
000000000000100000000000100000000000000000100000,
000000000000100000000000100000000000000000000000,
200000000000400000000000000000000000000000100000,
000000000000100000000000100000000000000000000000,
100000000000000000000000100000000000000000500000,
000000000000000000000000000080000000000000000000,
300000000000400000000000000000000000000000000000,
200000000000200000000000200000000000000000000000,
200000000000000000000000200000000000000000000000,
200000000000200000000000200000000000000000000000,
300000000000400000000000000000000000000000100000,
000000000000100000000000100000000000000000000000,
100000000000100000000000100000000000000000600000,
000000000000000000000000000080000000000000000000,
#GOGOEND
100000000000000000000000100000000000000000700000,
000000000000000000000000000000800000000000000000,
#END