tja
This commit is contained in:
637
tja/1058.tja
Normal file
637
tja/1058.tja
Normal file
@@ -0,0 +1,637 @@
|
||||
//TJADB Project
|
||||
TITLE:Daisuki na Taiko no Ne
|
||||
TITLEJA:大好きな太鼓の音
|
||||
SUBTITLE:--Soshina feat. Miki Narahashi
|
||||
SUBTITLEJA:太鼓の達人20周年記念ソング / 粗品 feat. どんちゃん
|
||||
BPM:190
|
||||
WAVE:Daisuki na Taiko no Ne.ogg
|
||||
OFFSET:-1.349
|
||||
DEMOSTART:21.539
|
||||
|
||||
COURSE:Edit
|
||||
LEVEL:9
|
||||
BALLOON:3,3,3,3,1,1,1,1,1,1,1,1,1,1,1,1,1,1,1,1,1,1,1
|
||||
SCOREINIT:390
|
||||
SCOREDIFF:70
|
||||
|
||||
|
||||
#START
|
||||
|
||||
|
||||
10002000300040005000800070008000,
|
||||
10002000300040005000800070008000,
|
||||
200000000000200000000000200000100100200000100000,
|
||||
200000200000200000200000200000100100200000100000,
|
||||
10002000300040005000800070008000,
|
||||
10002000300040005000800070008000,
|
||||
100000100000100000200000100000200000100000100000,
|
||||
100000100100100000200000200000100000100000100000,
|
||||
100000100000400000100000100000400000100000400000,
|
||||
100000100000400000100000100000400000100000400000,
|
||||
200000200000200000200000200000200200200000200000,
|
||||
100000100200200000100000100000100200200000100000,
|
||||
100000100000400000100000100000400000100000400000,
|
||||
100000100000400000100000100000400000100000400000,
|
||||
300000000000300000000000300000000000300000000000,
|
||||
500000000000000000000000000000000000000000800000,
|
||||
|
||||
#GOGOSTART
|
||||
100100100000100100100000100100100000200200200000,
|
||||
100100100000100100100000100100100000200200200000,
|
||||
100100100000100100100000100100100000200200200000,
|
||||
100100100000100100100000100000000000100000100000,
|
||||
100000000000100010001000100000000000200020002000,
|
||||
100000000000100010001000200000000000100000000000,
|
||||
100000000000100010001000100000200000100000000000,
|
||||
100000000000100010001000200000200000100000000000,
|
||||
200200100100100200100100200200200200100100200000,
|
||||
200200100100100200100100200200200200100100200000,
|
||||
200200100100200200100100100100200200100200100000,
|
||||
200200100100200200100100100100200200100100200000,
|
||||
100000100100200100000100100000100100200100000100,
|
||||
100000100100200100000100100100200000100100200000,
|
||||
100000100100200100000100100000100100200100000100,
|
||||
100000100100200100000100100100200000100100200000,
|
||||
200200100100200200100100200200100100200200100100,
|
||||
200200100100200200100100200200100100200200100100,
|
||||
100100100100100100100100200200200200200200200200,
|
||||
100100100100100100100100200200100100200200100100,
|
||||
100000200000100000200000100100200000100100200000,
|
||||
100000000000100100100100100000200000200000000000,
|
||||
100000200000100000200000100100200000100100200000,
|
||||
100000000000200200200200200000100000200000000000,
|
||||
#SCROLL 2
|
||||
500008000000500008000000500008000000
|
||||
#SCROLL 4
|
||||
400000000000,
|
||||
#SCROLL 2
|
||||
500008000000500008000000500008000000
|
||||
#SCROLL 4
|
||||
400000000000,
|
||||
#SCROLL 2
|
||||
300000300000000000000000600000000008000000300000,
|
||||
300000000000000000000000
|
||||
#SCROLL 4
|
||||
400000000000000000000000,
|
||||
#SCROLL 1
|
||||
100000200000100000200000100000200000100000000000,
|
||||
100000200000100000200000100000200000100000000000,
|
||||
100000200000100000200000100000200000100000000000,
|
||||
100000100000200000200000100000100000200000000000,
|
||||
200000200000100100100000200000200000100100100000,
|
||||
200000200000100100100000100000100100100000100000,
|
||||
200000200000100100100000200000200000100100100000,
|
||||
100000200000200000200000200200200000200000200000,
|
||||
100000000000200000000000100000100000200000000000,
|
||||
100000100100200000100000200000100000100100200000,
|
||||
200000000000100000000000200000200000100000200000,
|
||||
100000200000100100200100100000100000200000000000,
|
||||
100010002000100010002000100010002000101010002000,
|
||||
100010002000100010002000100010002000101010002000,
|
||||
100100200200100100200200100100200200100100200200,
|
||||
100100200200100200100200100100200200100200100200,
|
||||
#SCROLL 1.58
|
||||
200200200200200200200200100100100100100100100100,
|
||||
200200200200200200200200100100100100100100100100,
|
||||
200200200200100100100100200200200200100100100100,
|
||||
200100200100200100200100200100200100200100200100,
|
||||
|
||||
#GOGOEND
|
||||
#SCROLL 1
|
||||
300000000000500000000000000000000000000000800000,
|
||||
300000000000500000000000000000000000000000800000,
|
||||
100000000000200000100000000000100000200000200200,
|
||||
100000200000100000200000100100100200100000200000,
|
||||
100000100000100100100000100000100100100000100000,
|
||||
100100100000100000100100100000100100100000100000,
|
||||
200000200000200000200000200100100000200100100000,
|
||||
100000200200100000100100200000100100100000200000,
|
||||
100000100000100000100070000800000000000000000000100000100000100000100070000800000000000000000000,
|
||||
100000200000100000100070000800000000000000000000100000200000100000100070000800000000000000000000,
|
||||
100000100000200000200070000800000000000000000000100000100000200000200070000800000000000000000000,
|
||||
200000200000100000200070000800000000000000000000200000200000100000200070000800000000000000000000,
|
||||
200000200000200000200070000800000000000000000000200000200000200000200070000800000000000000000000,
|
||||
100000200000100000200070000800000000000000000000100000200000100000200070000800000000000000000000,
|
||||
100000400000100000400000100000400000100000400000,
|
||||
500000000000000000000000000000000000000000800000,
|
||||
300000000000400000000000300000300000400000000000,
|
||||
300000400000300000400000100100100000400000000000,
|
||||
200000000000100100100000100100200000100100200000,
|
||||
100100200100100000200100100100200000100000200000,
|
||||
200000000000000000100070000800000000000000100070000800000000000000100070000800000000000000100070,
|
||||
000800000000000000100070000800000000000000100070000800000000000000100070000800000000000000000000,
|
||||
200000200000200000200000100100200000100100200000,
|
||||
200000200000200000200000200000200000200200200000,
|
||||
200000200000200000200000200100200000200100200000,
|
||||
200000200000200000200000000000200000200000200000,
|
||||
200200200200200200200200200200200200200200200200,
|
||||
200000000000200000000000200000100100100000200000,
|
||||
200000200000200000200000200000200000200000200000,
|
||||
200100100100200100100100200200200000200000000000,
|
||||
200100100100100000200100100100100100200100100100,
|
||||
#MEASURE 7/8
|
||||
20211120002111,
|
||||
#BARLINEOFF
|
||||
#MEASURE 1/32
|
||||
#BPMCHANGE 5.68
|
||||
20,
|
||||
#MEASURE 4/4
|
||||
#BPMCHANGE 190
|
||||
,
|
||||
|
||||
|
||||
#END
|
||||
|
||||
|
||||
COURSE:Oni
|
||||
LEVEL:8
|
||||
SCOREINIT:310
|
||||
SCOREDIFF:90
|
||||
|
||||
|
||||
#START
|
||||
|
||||
|
||||
100000000000200000100100100000100000200000100000,
|
||||
000000100100200000100000200000100000200000000000,
|
||||
100000000000200000200200100000100000200000100000,
|
||||
000000100100200000100000200000100000200000000000,
|
||||
100000000000200000100100100000100000200000100000,
|
||||
000000100100200000100000200000100000200000000000,
|
||||
200000100000200000100000200000200000100000100000,
|
||||
200000100000200000100000200200100000200000200000,
|
||||
100000000000200000100100100000100000200000100000,
|
||||
000000100100200000100000200000100000200000000000,
|
||||
100000000000200000200200100000100000200000100000,
|
||||
000000100000200200100000200000100000200000000000,
|
||||
100000000000200000100100100000100000200000100000,
|
||||
000000100100200000100000200000100000200000000000,
|
||||
200000100000200000100000200000200000100000100000,
|
||||
200200100000200000100000200200200000100100100100,
|
||||
|
||||
#GOGOSTART
|
||||
100000100000100000100000100000100000100100100000,
|
||||
100000100000100000100000100100100100200000100000,
|
||||
100000100000100000100000100000100000100100100000,
|
||||
100000100000100100100000100100100000200200200000,
|
||||
100000100000100000100000100000100000100100100000,
|
||||
100000100000100000100000100100100000100100100000,
|
||||
100000100000100100100000100000100000100100100000,
|
||||
100100100100100000100000100100100100200000000000,
|
||||
100100100000100000100000100100100000100000100000,
|
||||
100100100000100000100100100000100000100000100000,
|
||||
100100100000100000100000100100100000100000100000,
|
||||
100100100000100000100100100000100000200000100000,
|
||||
100100100000100000200000100100100000100000200000,
|
||||
100100200000100000200000100100200000100000200000,
|
||||
500000000000000000000000000000000000000008000000,
|
||||
300000300000000000300000000000000000200200200200,
|
||||
100000000000200000000000100000100000200000000000,
|
||||
100000000000200000100100100000100000200000100000,
|
||||
100000000000200000000000100000100000200000000000,
|
||||
100100100000200000100100100000100000200000000000,
|
||||
100000100000200200200000100000100000200000000000,
|
||||
100000100000200200200000100000100000200000000000,
|
||||
100100100000100000100000100100100000100000100000,
|
||||
100100100000100100100000200000200000200000000000,
|
||||
1110200011102000,
|
||||
1110101022202000,
|
||||
100100100000200000000000100100100000200000000000,
|
||||
1110101022102000,
|
||||
100100100000100000000000100100200000100000000000,
|
||||
100200100000200000000000100200200000200000000000,
|
||||
500000000000000000000000000000000000000000000000,
|
||||
000000000000000000000008000000100100100000100000,
|
||||
100000100000200000000000100000200000000000200000,
|
||||
100000100000200000100000000000200000100000200200,
|
||||
100000100000200000000000100000200000000000200000,
|
||||
100000100000200000100100100000200000100000200000,
|
||||
100000100000200000000000100000200000000000200000,
|
||||
100000100000200000100100100000200000100000000000,
|
||||
300000000000100100100000300000000000100100100000,
|
||||
300000000000100100100000100100100000100100100000,
|
||||
100000100000200000000000100000200000100000200000,
|
||||
100000100000200000100000000000200000100000200000,
|
||||
100000200200200000200000100000200200200000200000,
|
||||
100000200200200000200200200000200200200000200000,
|
||||
100000000000200000000000100000100000200000000000,
|
||||
100000100000200000100100100000200000100000000000,
|
||||
600000000000000000000000000000000000000000000000,
|
||||
000000000000000000000008000000200200100200200200,
|
||||
|
||||
#GOGOEND
|
||||
100000000000200000000000100100100000200000100000,
|
||||
100100000100200000100100100000100000200000100000,
|
||||
100000000000200000000000100100100000200000100000,
|
||||
100100100000100000200200200000200000100100100000,
|
||||
100000000000200000000000100100100000200000100000,
|
||||
100100000100200000100100100000100000200000100000,
|
||||
100100000200200000100100100000200000200000100000,
|
||||
100100000200200000100100100000200200100200200200,
|
||||
100000100000200000100000100100100000200000100000,
|
||||
100000100000200000100100100000100000200000100000,
|
||||
100000100000200000100000100100100000200000100000,
|
||||
100000100000200000100100100000100000200000100000,
|
||||
100100100000200000100000100100100000200000100000,
|
||||
100100100100200000100100100000100000200000100000,
|
||||
400000300000400000300000400000300000400000300000,
|
||||
200200100000200200100000200200100000200200100100,
|
||||
100000000000200000000000100100100000200000100000,
|
||||
100100000100200000100100100000100000200000100000,
|
||||
100000000000200000000000100100100000200000100000,
|
||||
100100100000100000200200200000200000100100100000,
|
||||
100000000000200000000000100100100000200000100000,
|
||||
100100000100200000100100100000100000200000100000,
|
||||
100100000200200000100100100000200200200000100100,
|
||||
200100100000200000100100200100100000200200100100,
|
||||
100000100000200000100000100100100000200000100000,
|
||||
200000100000200000100100200000100000200000100100,
|
||||
200000100000200000100000200200100000200000100100,
|
||||
200200100000200000100100200200100000200000000000,
|
||||
100000200200200000200200200000200000100000200000,
|
||||
100000200200100000200000100000200200200000200000,
|
||||
500000000000000000000000000000000000000000000000,
|
||||
#MEASURE 7/8
|
||||
000000000000000000000000008000000300000000,
|
||||
#BARLINEOFF
|
||||
#MEASURE 1/32
|
||||
#BPMCHANGE 5.68
|
||||
#SCROLL 33.4507042254
|
||||
3,
|
||||
#MEASURE 4/4
|
||||
#BPMCHANGE 190
|
||||
#SCROLL 1
|
||||
,
|
||||
|
||||
|
||||
#END
|
||||
|
||||
|
||||
COURSE:Hard
|
||||
LEVEL:7
|
||||
BALLOON:9,20,20,20
|
||||
SCOREDIFF:0
|
||||
|
||||
|
||||
#START
|
||||
|
||||
|
||||
100000000000200000000000100000100000200000100000,
|
||||
000000100000200000000000200000000000200000000000,
|
||||
100000000000200000000000100000100000000000100000,
|
||||
000000100000200000000000200000000000200000000000,
|
||||
100000000000200000000000100000100000200000100000,
|
||||
000000100000200000000000200000000000200000000000,
|
||||
200000000000100000000000200000000000100000000000,
|
||||
200000100000200000100000200000100000200000000000,
|
||||
100000000000200000000000100000100000200000100000,
|
||||
000000100000200000000000200000000000200000000000,
|
||||
100000000000200000000000100000100000000000100000,
|
||||
000000100000200000000000200000000000200000000000,
|
||||
100000000000200000000000100000100000200000100000,
|
||||
000000100000200000000000200000000000200000000000,
|
||||
200000000000100000000000200000000000100000000000,
|
||||
700000000000000000000000000000000000800000000000,
|
||||
|
||||
#GOGOSTART
|
||||
100000100000100000000000100000100000100000000000,
|
||||
100000100000100000100000100100100000100000000000,
|
||||
100000100000100000000000100000100000100000000000,
|
||||
100000100000100000100000100100100000100000000000,
|
||||
100000100000100000000000100000100000100000000000,
|
||||
100000100000100000100000100100100000100000000000,
|
||||
500000000000000000000000000000000000000008000000,
|
||||
000000000000000000000000000000000000000000000000,
|
||||
100100100000100000000000100100100000100000000000,
|
||||
100100100000100000000000200000000000200000000000,
|
||||
100100100000100000000000100100100000100000000000,
|
||||
200000000000000000000000200000000000200000000000,
|
||||
100100100000100000000000100100100000100000000000,
|
||||
200200200000200000000000100100100000100000000000,
|
||||
500000000000000000000000000000000000000008000000,
|
||||
300000300000000000300000000000000000200000200000,
|
||||
100000000000200000000000100000000000200000000000,
|
||||
100000000000200000100000100000100000200000000000,
|
||||
100000000000200000000000100000000000200000000000,
|
||||
100000100000200000000000200000100000200000000000,
|
||||
100000000000200000000000100000000000200000000000,
|
||||
100000000000200000100000100000100000200000000000,
|
||||
500000000000000000000000000000000000000008000000,
|
||||
000000000000000000000000000000000000000000000000,
|
||||
1212,
|
||||
10211120,
|
||||
100000000000200000000000100000000000200000000000,
|
||||
2022,
|
||||
100100100000100000000000100100100000100000000000,
|
||||
200200200000200000000000200200200000200000000000,
|
||||
500000000000000000000000000000000000000000000000,
|
||||
000000000000000000000008000000000000000000000000,
|
||||
100000000000200000000000100000200000000000200000,
|
||||
100000000000100000100000000000200000200000000000,
|
||||
100000000000200000000000100000200000000000200000,
|
||||
100000000000200000200000000000100000100000000000,
|
||||
100000000000200000000000100000200000000000200000,
|
||||
100000000000100000100000000000200000200000000000,
|
||||
300000000000100000000000300000000000100000000000,
|
||||
300000000000100000000000300000000000100000000000,
|
||||
100000000000200000000000100000200000000000200000,
|
||||
100000000000200000200000000000100000100000000000,
|
||||
100000200000200000200000100000200000200000200000,
|
||||
100000200000200000200000200000200000200000000000,
|
||||
100000000000100000000000100000100000100000000000,
|
||||
100000100000100000100000100000100000100000000000,
|
||||
600000000000000000000000000000000000000000000000,
|
||||
000000000000000000000000000008000000000000000000,
|
||||
|
||||
#GOGOEND
|
||||
100000000000200000000000100000100000200000100000,
|
||||
100000000000200000000000100000200000100000200000,
|
||||
100000000000200000000000100000100000200000100000,
|
||||
100000000000100000200200200000200000200000000000,
|
||||
100000000000200000000000100000100000200000100000,
|
||||
100000000000200000000000100000200000100000200000,
|
||||
700000000000000000000000000000000000000000000000,
|
||||
08,
|
||||
100000100000200000000000100000100000200000000000,
|
||||
100000100000200000100000100000100000200000000000,
|
||||
100000100000200000000000100000100000200000000000,
|
||||
100000100000200000100000100000100000200000000000,
|
||||
100100100000200000000000100100100000200000000000,
|
||||
100100100000200000000000100000100000200000000000,
|
||||
300000000000300000000000300000000000300000000000,
|
||||
100000100000100000100000100000100000100000000000,
|
||||
100000000000200000000000100000100000200000100000,
|
||||
100000000000200000000000100000200000100000200000,
|
||||
100000000000200000000000100000100000200000100000,
|
||||
100000000000100000200200200000200000200000000000,
|
||||
100000000000200000000000100000100000200000100000,
|
||||
100000000000200000000000100000200000100000200000,
|
||||
700000000000000000000000000000000000000000000000,
|
||||
08,
|
||||
100000100000100000100000100100100000100000000000,
|
||||
200000100000200000100000200000100000200000000000,
|
||||
200000100000200000100000200000200000200000000000,
|
||||
200200200000200000200000200000000000200000000000,
|
||||
100000200000200000200000200000200000200000200000,
|
||||
100000200000200000000000200000200000000000200000,
|
||||
900000000000000000000000000000000000000000000000,
|
||||
#MEASURE 7/8
|
||||
08000000000000,
|
||||
#BARLINEOFF
|
||||
#MEASURE 1/32
|
||||
#BPMCHANGE 5.68
|
||||
,
|
||||
#MEASURE 4/4
|
||||
#BPMCHANGE 190
|
||||
#SCROLL 1
|
||||
,
|
||||
|
||||
|
||||
#END
|
||||
|
||||
|
||||
COURSE:Normal
|
||||
LEVEL:6
|
||||
BALLOON:6,12,12,15
|
||||
SCOREDIFF:0
|
||||
|
||||
|
||||
#START
|
||||
|
||||
|
||||
100000000000100000000000100000100000000000100000,
|
||||
000000000000100000000000200000000000000000000000,
|
||||
100000000000100000000000200000200000000000100000,
|
||||
000000000000100000000000200000000000000000000000,
|
||||
100000000000100000000000100000100000000000100000,
|
||||
000000000000100000000000200000000000000000000000,
|
||||
200000000000100000000000200000000000100000000000,
|
||||
200000000000100000000000200000000000200000000000,
|
||||
100000000000100000000000100000100000000000100000,
|
||||
000000000000100000000000200000000000000000000000,
|
||||
100000000000100000000000200000200000000000100000,
|
||||
000000000000100000000000200000000000000000000000,
|
||||
100000000000100000000000100000100000000000100000,
|
||||
000000000000100000000000200000000000000000000000,
|
||||
200000000000100000000000200000000000100000000000,
|
||||
700000000000000000000000000000000000800000000000,
|
||||
|
||||
#GOGOSTART
|
||||
100000000000100000000000100000000000200000000000,
|
||||
100000000000100000000000100000100000100000000000,
|
||||
100000000000100000000000100000000000200000000000,
|
||||
100000000000100000000000100000100000100000000000,
|
||||
100000000000100000000000100000000000200000000000,
|
||||
100000000000100000000000100000100000100000000000,
|
||||
500000000000000000000000000000000000000008000000,
|
||||
000000000000000000000000000000000000000000000000,
|
||||
100000100000100000000000100000100000100000000000,
|
||||
100000100000100000000000200000000000200000000000,
|
||||
100000100000100000000000100000100000100000000000,
|
||||
200000000000000000000000200000000000200000000000,
|
||||
100000100000100000000000100000100000100000000000,
|
||||
200000200000200000000000200000200000200000000000,
|
||||
500000000000000000000000000000000000000008000000,
|
||||
000000000000000000000000000000000000000000000000,
|
||||
100000000000200000000000100000000000000000000000,
|
||||
100000000000200000000000100000100000100000000000,
|
||||
100000000000200000000000100000000000000000000000,
|
||||
100000000000200000000000100000100000100000000000,
|
||||
100000000000200000000000100000000000000000000000,
|
||||
100000000000200000000000100000100000100000000000,
|
||||
500000000000000000000000000000000000000008000000,
|
||||
000000000000000000000000000000000000000000000000,
|
||||
1210,
|
||||
10201110,
|
||||
100000000000200000000000100000000000000000000000,
|
||||
2022,
|
||||
100000100000100000000000100000100000100000000000,
|
||||
200000200000200000000000200000200000200000000000,
|
||||
500000000000000000000000000000000000000000000000,
|
||||
000000000000000000000008000000000000000000000000,
|
||||
100000000000200000000000100000100000000000100000,
|
||||
100000000000100000100000000000100000100000000000,
|
||||
100000000000200000000000100000100000000000100000,
|
||||
100000000000200000200000000000200000200000000000,
|
||||
100000000000200000000000100000100000000000100000,
|
||||
100000000000100000100000000000100000100000000000,
|
||||
300000000000000000000000300000000000000000000000,
|
||||
300000000000000000000000300000000000000000000000,
|
||||
100000000000200000000000100000100000000000100000,
|
||||
100000000000100000100000000000100000100000000000,
|
||||
100000000000000000000000100000000000000000000000,
|
||||
100000000000200000000000200000200000200000000000,
|
||||
100000000000100000000000100000000000100000000000,
|
||||
100000100000100000000000100000100000100000000000,
|
||||
600000000000000000000000000000000000000000000000,
|
||||
000000000000000000000000000008000000000000000000,
|
||||
|
||||
#GOGOEND
|
||||
100000000000100000000000100000100000100000000000,
|
||||
100000000000100000000000100000100000100000100000,
|
||||
100000000000100000000000100000100000100000000000,
|
||||
100000000000100000000000200000200000200000000000,
|
||||
100000000000100000000000100000100000100000000000,
|
||||
100000000000100000000000100000100000100000100000,
|
||||
7,
|
||||
08,
|
||||
100000000000200000000000100000000000200000000000,
|
||||
100000000000200000000000100000200000100000000000,
|
||||
100000000000200000000000100000000000200000000000,
|
||||
100000000000200000000000100000200000100000000000,
|
||||
100000000000200000000000100000000000200000000000,
|
||||
100000000000200000000000100000200000100000000000,
|
||||
300000000000300000000000300000000000300000000000,
|
||||
500000000000000000000000000000000008000000000000,
|
||||
100000000000100000000000100000100000100000000000,
|
||||
100000000000100000000000100000100000100000100000,
|
||||
100000000000100000000000100000100000100000000000,
|
||||
100000000000100000000000200000200000200000000000,
|
||||
100000000000100000000000100000100000100000000000,
|
||||
100000000000100000000000100000100000100000100000,
|
||||
7,
|
||||
08,
|
||||
100000100000100000000000100000100000100000000000,
|
||||
200000000000100000000000200000000000100000000000,
|
||||
200000200000200000000000200000200000200000000000,
|
||||
100000000000200000000000100000000000000000000000,
|
||||
100000000000200000000000200000200000200000000000,
|
||||
100000000000200000000000200000200000000000200000,
|
||||
9,
|
||||
#MEASURE 7/8
|
||||
08000000000000,
|
||||
#BARLINEOFF
|
||||
#MEASURE 1/32
|
||||
#BPMCHANGE 5.68
|
||||
,
|
||||
#MEASURE 4/4
|
||||
#BPMCHANGE 190
|
||||
#SCROLL 1
|
||||
,
|
||||
|
||||
|
||||
#END
|
||||
|
||||
|
||||
COURSE:Easy
|
||||
LEVEL:3
|
||||
BALLOON:4,10,10,12
|
||||
SCOREDIFF:0
|
||||
|
||||
|
||||
#START
|
||||
|
||||
|
||||
100000000000000000000000000000000000000000100000,
|
||||
000000000000000000000000100000000000000000000000,
|
||||
100000000000000000000000000000000000000000100000,
|
||||
000000000000000000000000100000000000000000000000,
|
||||
100000000000000000000000000000000000000000100000,
|
||||
000000000000000000000000100000000000000000000000,
|
||||
100000000000100000000000100000000000000000000000,
|
||||
100000000000100000000000100000000000000000000000,
|
||||
100000000000000000000000000000000000000000100000,
|
||||
000000000000000000000000100000000000000000000000,
|
||||
100000000000000000000000000000000000000000100000,
|
||||
000000000000000000000000100000000000000000000000,
|
||||
100000000000000000000000000000000000000000100000,
|
||||
000000000000000000000000100000000000000000000000,
|
||||
100000000000100000000000100000000000000000000000,
|
||||
700000800,
|
||||
|
||||
#GOGOSTART
|
||||
100000000000100000000000100000000000000000000000,
|
||||
100000000000100000000000100000000000000000000000,
|
||||
100000000000100000000000100000000000000000000000,
|
||||
100000000000000000000000100000000000000000000000,
|
||||
100000000000100000000000100000000000000000000000,
|
||||
100000000000100000000000100000000000000000000000,
|
||||
500000000000000000000000000000000000000008000000,
|
||||
000000000000000000000000000000000000000000000000,
|
||||
100000000000100000000000100000000000000000000000,
|
||||
100000000000100000000000100000000000000000000000,
|
||||
200000000000200000000000200000000000000000000000,
|
||||
200000000000000000000000000000000000000000000000,
|
||||
100000000000100000000000100000000000000000000000,
|
||||
100000000000100000000000100000000000000000000000,
|
||||
500000000000000000000000000000000000000008000000,
|
||||
000000000000000000000000000000000000000000000000,
|
||||
100000000000000000000000000000000000000000000000,
|
||||
100000000000100000000000100000000000000000000000,
|
||||
100000000000000000000000000000000000000000000000,
|
||||
200000000000200000000000200000000000000000000000,
|
||||
100000000000000000000000000000000000000000000000,
|
||||
100000000000100000000000100000000000000000000000,
|
||||
500000000000000000000000000000000000000008000000,
|
||||
000000000000000000000000000000000000000000000000,
|
||||
11,
|
||||
11,
|
||||
22,
|
||||
2,
|
||||
100000000000100000000000100000000000000000000000,
|
||||
100000000000100000000000100000000000000000000000,
|
||||
500000000000000000000000000000000000000000000000,
|
||||
000000000000000000000008000000000000000000000000,
|
||||
100000000000100000000000100000000000000000000000,
|
||||
200000000000000000000000000000000000000000000000,
|
||||
100000000000100000000000100000000000000000000000,
|
||||
200000000000000000000000000000000000000000000000,
|
||||
100000000000100000000000100000000000000000000000,
|
||||
200000000000000000000000000000000000000000000000,
|
||||
300000000000000000000000300000000000000000000000,
|
||||
300000000000000000000000000000000000000000000000,
|
||||
100000000000100000000000100000000000000000000000,
|
||||
200000000000000000000000000000000000000000000000,
|
||||
100000000000000000000000100000000000000000000000,
|
||||
100000000000000000000000000000000000000000000000,
|
||||
100000000000000000000000200000000000000000000000,
|
||||
100000000000100000000000100000000000000000000000,
|
||||
600000000000000000000000000000000000000000000000,
|
||||
000000000000000000000000000008000000000000000000,
|
||||
|
||||
#GOGOEND
|
||||
100000000000000000000000100000000000000000000000,
|
||||
100000000000100000000000100000000000000000000000,
|
||||
100000000000000000000000100000000000000000000000,
|
||||
100000000000100000000000100000000000000000000000,
|
||||
100000000000000000000000100000000000000000000000,
|
||||
100000000000100000000000100000000000000000000000,
|
||||
7,
|
||||
08,
|
||||
100000000000000000000000100000000000000000000000,
|
||||
200000000000200000000000200000000000000000000000,
|
||||
100000000000000000000000100000000000000000000000,
|
||||
200000000000200000000000200000000000000000000000,
|
||||
100000000000000000000000100000000000000000000000,
|
||||
200000000000200000000000200000000000000000000000,
|
||||
100000000000100000000000100000000000100000000000,
|
||||
500000000000000000000000000008000000000000000000,
|
||||
100000000000000000000000100000000000000000000000,
|
||||
100000000000100000000000100000000000000000000000,
|
||||
100000000000000000000000100000000000000000000000,
|
||||
100000000000100000000000100000000000000000000000,
|
||||
100000000000000000000000100000000000000000000000,
|
||||
100000000000100000000000100000000000000000000000,
|
||||
7,
|
||||
08,
|
||||
100000000000100000000000100000000000000000000000,
|
||||
100000000000100000000000100000000000000000000000,
|
||||
200000000000200000000000200000000000000000000000,
|
||||
200000000000200000000000200000000000000000000000,
|
||||
100000000000100000000000100000000000000000000000,
|
||||
100000000000100000000000100000000000000000000000,
|
||||
9,
|
||||
#MEASURE 7/8
|
||||
08000000000000,
|
||||
#BARLINEOFF
|
||||
#MEASURE 1/32
|
||||
#BPMCHANGE 5.68
|
||||
,
|
||||
#MEASURE 4/4
|
||||
#BPMCHANGE 190
|
||||
#SCROLL 1
|
||||
,
|
||||
|
||||
|
||||
#END
|
||||
|
||||
Reference in New Issue
Block a user