tja
This commit is contained in:
306
tja/1062.tja
Normal file
306
tja/1062.tja
Normal file
@@ -0,0 +1,306 @@
|
||||
//TJADB Project
|
||||
TITLE:Boku no Sensou
|
||||
TITLEJA:僕の戦争
|
||||
SUBTITLE:--Shinsei Kamattechan/Shingeki no Kyojin
|
||||
SUBTITLEJA:「進撃の巨人 FinalSeason」より
|
||||
BPM:144
|
||||
WAVE:Boku no Sensou.ogg
|
||||
OFFSET:-0.383
|
||||
DEMOSTART:39.549
|
||||
|
||||
COURSE:Oni
|
||||
LEVEL:8
|
||||
SCOREINIT:2400
|
||||
SCOREDIFF:0
|
||||
|
||||
|
||||
#START
|
||||
|
||||
|
||||
200000000100000000200000200000000000100000000000,
|
||||
200000000100000000200000200000000000200000000000,
|
||||
200000000100000000200000200000000000100000000000,
|
||||
200000000100000000200000100000100100200000100000,
|
||||
|
||||
#GOGOSTART
|
||||
100000100100200000100200100000100000200000100000,
|
||||
100000100100200000200000100000200100200000200000,
|
||||
100000100100200000100200100000100000200000100000,
|
||||
100000100100200000200000100000200100200000100000,
|
||||
100000100100200000100200100000100000200000100000,
|
||||
100000100100200000200000100000200100200000200000,
|
||||
300000000000400000000000300000000000400000000000,
|
||||
500000000000000000000000000000000000000008000000,
|
||||
100000100100200000100000200000100000200200100000,
|
||||
100000100100200000200000100000200000200200100000,
|
||||
100000100100200000100000200000100000200200100000,
|
||||
100000100100200000200000100000200000200200100000,
|
||||
|
||||
#GOGOEND
|
||||
100000000000200000100100100000200000100000100000,
|
||||
200000100100200000200000100000200000100000200000,
|
||||
100000000000200000100100200000200000100000100000,
|
||||
200000100100200000200000100000100000200000100000,
|
||||
100000000000200000100100200000100000200000100000,
|
||||
200000100100200000200000100000100000200000100000,
|
||||
200000200000200000200000000000500000000000000000,
|
||||
000000000008000000000000100000100100200000100000,
|
||||
|
||||
#GOGOSTART
|
||||
100000100100200000100200100000100000200000100000,
|
||||
100000100100200000200000100000200100200000200000,
|
||||
100000100100200000200100200000100000200000100000,
|
||||
100000100100200000200000100000000000100000000000,
|
||||
100000100100200000100200100000100000200000100000,
|
||||
100000100100200000200000100000200100200000200000,
|
||||
300000000000400000000000300000000000400000000000,
|
||||
500000000000000008000000100000100100200000100000,
|
||||
100000200200200000100200100000100000200000100000,
|
||||
100000200200200000200000100000200100200000200000,
|
||||
100000200200200000200100200000100000200000100000,
|
||||
100100100100200100200000100100100100200100200000,
|
||||
100000100100200000100200100000100000200000100000,
|
||||
100000100100200000200000100000200100200000200000,
|
||||
300000000000400000000000300000000000400000000000,
|
||||
500000000000000000000000000000000000000008000000,
|
||||
100000200000100000100200100000100100200000100000,
|
||||
100000200000100000100000200200100100200000200000,
|
||||
300000000000400000000000300000000000400000000000,
|
||||
500000000000000000000000000000000000000008000000,
|
||||
|
||||
#GOGOEND
|
||||
200200200200100100100100200200200200100100100000,
|
||||
200200200000100100100000600000000000000008000000,
|
||||
200200100100200200100100200200100100200200100000,
|
||||
500000000008000000000000600000000000000008000000,
|
||||
200200200200100100100100200200200200100100100000,
|
||||
500000000008000000000000600000000000000008000000,
|
||||
100000100000100000100000200000100000200000100000,
|
||||
100000100000200000100000100000100000400000000000,
|
||||
|
||||
|
||||
#END
|
||||
|
||||
|
||||
|
||||
COURSE:Hard
|
||||
LEVEL:5
|
||||
BALLOON:13
|
||||
SCOREDIFF:0
|
||||
|
||||
|
||||
#START
|
||||
|
||||
|
||||
200000000000000000200000200000000000000000000000,
|
||||
200000000000000000000000200000000000000000000000,
|
||||
200000000000000000200000200000000000000000000000,
|
||||
200000000000000000000000200000000000000000000000,
|
||||
|
||||
#GOGOSTART
|
||||
100000000000200000100000100000100000200000100000,
|
||||
100000100100100000000000100000000000200000200000,
|
||||
100000000000200000100000100000100000200000100000,
|
||||
100000100100100000000000100000000000200000000000,
|
||||
100000000000200000100000100000100000200000100000,
|
||||
100000100100100000000000100000000000200000200000,
|
||||
300000000000400000000000300000000000400000000000,
|
||||
500000000000000000000000000000000000000008000000,
|
||||
100000100000200000000000200000100000200000000000,
|
||||
100000100100100000000000100000200000200000000000,
|
||||
100000100000200000000000200000100000200000000000,
|
||||
100000100100100000000000100000200000200000000000,
|
||||
|
||||
#GOGOEND
|
||||
100000000000100000100000200000100000000000100000,
|
||||
200000100000000000100000000000100000000000200000,
|
||||
100000000000100000100000200000100000000000100000,
|
||||
200000100000000000100000100000000000200000000000,
|
||||
100000000000100000100000200000100000000000100000,
|
||||
200000100000000000100000000000100000000000000000,
|
||||
7,
|
||||
8,
|
||||
|
||||
#GOGOSTART
|
||||
100000000000200000100000100000100000200000100000,
|
||||
100000100100100000000000100000000000200000200000,
|
||||
100000000000200000100000200000100000200000100000,
|
||||
100000100100100000000000100000000000100000000000,
|
||||
100000000000200000100000100000100000200000100000,
|
||||
100000100100100000000000100000000000200000200000,
|
||||
300000000000400000000000300000000000400000000000,
|
||||
500000000000000000000000000000000000000008000000,
|
||||
100000000000200000100000100000100000200000100000,
|
||||
100000100100100000000000100000000000200000200000,
|
||||
100000000000200000100000200000100000200000100000,
|
||||
100000100100100000000000100000000000100000000000,
|
||||
100000000000200000100000100000100000200000100000,
|
||||
100000100100100000000000100000000000200000200000,
|
||||
300000000000400000000000300000000000400000000000,
|
||||
500000000000000000000000000000000000000008000000,
|
||||
100000000000100000000000100000100000200000100000,
|
||||
100000000000100000000000200000200000200000000000,
|
||||
300000000000400000000000300000000000400000000000,
|
||||
500000000000000000000000000000000000000008000000,
|
||||
|
||||
#GOGOEND
|
||||
200000200000100000100000200000200000100000100000,
|
||||
200000200000100000100000600000000000000008000000,
|
||||
200000200000100000100000200000200000100000100000,
|
||||
500000000008000000000000600000000000000008000000,
|
||||
200000200000100000100000200000200000100000100000,
|
||||
500000000008000000000000600000000000000008000000,
|
||||
300000000000300000000000400000000000400000000000,
|
||||
300000000000400000000000300000000000400000000000,
|
||||
|
||||
|
||||
#END
|
||||
|
||||
|
||||
COURSE:Normal
|
||||
LEVEL:4
|
||||
BALLOON:11
|
||||
SCOREDIFF:0
|
||||
|
||||
|
||||
#START
|
||||
|
||||
|
||||
200000000000000000000000200000000000000000000000,
|
||||
200000000000000000000000000000000000000000000000,
|
||||
200000000000000000000000200000000000000000000000,
|
||||
200000000000000000000000000000000000000000000000,
|
||||
|
||||
#GOGOSTART
|
||||
100000000000000000000000100000100000000000100000,
|
||||
100000100000100000000000100000000000200000000000,
|
||||
100000000000000000000000100000100000000000100000,
|
||||
100000100000100000000000100000000000000000000000,
|
||||
100000000000000000000000100000100000000000100000,
|
||||
100000100000100000000000100000000000200000000000,
|
||||
300000000000400000000000300000000000400000000000,
|
||||
500000000000000000000000000000000000000008000000,
|
||||
100000000000100000000000100000000000100000000000,
|
||||
100000100000100000000000200000000000200000000000,
|
||||
100000000000100000000000100000000000100000000000,
|
||||
100000100000100000000000200000000000200000000000,
|
||||
|
||||
#GOGOEND
|
||||
100000000000100000100000000000100000000000100000,
|
||||
000000100000000000100000000000000000000000000000,
|
||||
100000000000100000100000000000100000000000100000,
|
||||
000000200000000000200000200000000000000000000000,
|
||||
100000000000100000100000000000100000000000100000,
|
||||
000000100000000000100000000000000000000000000000,
|
||||
7,
|
||||
8,
|
||||
|
||||
#GOGOSTART
|
||||
100000000000200000000000100000100000000000100000,
|
||||
100000100000100000000000100000000000200000000000,
|
||||
100000000000200000000000200000200000000000100000,
|
||||
100000100000100000000000100000000000000000000000,
|
||||
100000000000200000000000100000100000000000100000,
|
||||
100000100000100000000000100000000000200000000000,
|
||||
300000000000400000000000300000000000400000000000,
|
||||
500000000000000000000000000000000000000008000000,
|
||||
100000000000200000000000100000100000000000100000,
|
||||
100000100000100000000000100000000000200000000000,
|
||||
100000000000200000000000200000200000000000100000,
|
||||
100000100000100000000000100000000000000000000000,
|
||||
100000000000200000000000100000100000000000100000,
|
||||
100000100000100000000000100000000000200000000000,
|
||||
300000000000400000000000300000000000400000000000,
|
||||
500000000000000000000000000000000000000008000000,
|
||||
100000000000100000000000100000000000200000000000,
|
||||
100000000000100000000000200000000000200000000000,
|
||||
300000000000400000000000300000000000400000000000,
|
||||
500000000000000000000000000000000000000008000000,
|
||||
|
||||
#GOGOEND
|
||||
200000000000100000000000200000000000100000000000,
|
||||
200000000000100000000000600000000000000008000000,
|
||||
200000000000100000000000200000000000100000000000,
|
||||
100000000000000000000000600000000000000008000000,
|
||||
200000000000100000000000200000000000100000000000,
|
||||
100000000000000000000000600000000000000008000000,
|
||||
300000000000300000000000300000000000300000000000,
|
||||
300000000000300000000000300000000000400000000000,
|
||||
|
||||
|
||||
#END
|
||||
|
||||
|
||||
COURSE:Easy
|
||||
LEVEL:3
|
||||
BALLOON:9
|
||||
SCOREDIFF:0
|
||||
|
||||
|
||||
#START
|
||||
|
||||
|
||||
200000000000000000000000000000000000000000000000,
|
||||
200000000000000000000000000000000000000000000000,
|
||||
200000000000000000000000000000000000000000000000,
|
||||
200000000000000000000000000000000000000000000000,
|
||||
|
||||
#GOGOSTART
|
||||
100000000000000000000000100000000000000000000000,
|
||||
100000000000100000000000100000000000100000000000,
|
||||
100000000000000000000000200000000000000000000000,
|
||||
100000000000100000000000100000000000000000000000,
|
||||
100000000000000000000000100000000000000000000000,
|
||||
100000000000100000000000100000000000100000000000,
|
||||
300000000000000000000000300000000000000000000000,
|
||||
500000000000000000000000000008000000000000000000,
|
||||
100000000000100000000000100000000000100000000000,
|
||||
100000000000000000000000200000000000000000000000,
|
||||
100000000000100000000000100000000000100000000000,
|
||||
100000000000000000000000200000000000000000000000,
|
||||
|
||||
#GOGOEND
|
||||
100000000000000000000000000000000000000000100000,
|
||||
000000000000000000100000000000000000000000000000,
|
||||
200000000000000000000000000000000000000000100000,
|
||||
000000000000000000100000000000000000000000000000,
|
||||
100000000000000000000000000000000000000000100000,
|
||||
000000000000000000100000000000000000000000000000,
|
||||
7,
|
||||
8,
|
||||
|
||||
#GOGOSTART
|
||||
100000000000000000000000100000000000000000000000,
|
||||
100000000000100000000000100000000000100000000000,
|
||||
100000000000000000000000200000000000000000000000,
|
||||
100000000000100000000000100000000000000000000000,
|
||||
100000000000000000000000100000000000000000000000,
|
||||
100000000000100000000000100000000000100000000000,
|
||||
300000000000000000000000300000000000000000000000,
|
||||
500000000000000000000000000008000000000000000000,
|
||||
100000000000000000000000100000000000000000000000,
|
||||
100000000000100000000000100000000000100000000000,
|
||||
100000000000000000000000200000000000000000000000,
|
||||
200000000000000000000000200000000000000000000000,
|
||||
100000000000000000000000100000000000000000000000,
|
||||
100000000000100000000000100000000000100000000000,
|
||||
300000000000000000000000300000000000000000000000,
|
||||
500000000000000000000000000008000000000000000000,
|
||||
100000000000100000000000100000000000000000000000,
|
||||
100000000000000000000000200000000000000000000000,
|
||||
300000000000000000000000300000000000000000000000,
|
||||
500000000000000000000000000008000000000000000000,
|
||||
|
||||
#GOGOEND
|
||||
200000000000000000000000000000000000000000000000,
|
||||
200000000000000000000000100000000000000000000000,
|
||||
200000000000000000000000000000000000000000000000,
|
||||
100000000000000000000000100000000000000000000000,
|
||||
200000000000000000000000000000000000000000000000,
|
||||
100000000000000000000000100000000000000000000000,
|
||||
300000000000000000000000300000000000000000000000,
|
||||
300000000000000000000000300000000000300000000000,
|
||||
|
||||
|
||||
#END
|
||||
|
||||
Reference in New Issue
Block a user