This commit is contained in:
2026-03-04 23:59:27 +09:00
parent 6e0312f5b4
commit 4b4e2b8c98
1128 changed files with 668765 additions and 0 deletions

933
tja/1081.tja Normal file
View File

@@ -0,0 +1,933 @@
//TJADB Project
TITLE:Metameta☆Universe!
TITLEJA:めためた☆ゆにば~すっ!
SUBTITLE:--kyo (BNSI) × Mitsu (TRYTONELABO) feat. Zakuro Motoki
SUBTITLEJA:kyo(BNSI)×Mitsu(TRYTONELABO) feat. 本木咲黒
BPM:180
WAVE:Metameta Universe!.ogg
OFFSET:-1.476
DEMOSTART:56.973
COURSE:Edit
LEVEL:10
BALLOON:30,30,30
SCOREINIT:400,1140
SCOREDIFF:95
#START
0,
2222,
2000200020222011,
1000201110222011,
1000201110222011,
1011101110111011,
500000000000000000000008000000100000100000100000, //7
#BRANCHSTART p,999,90
#N
100000100000300300111100,
100000100000200000100000000000200200101010100000,
1011201000112010,
0011201000112020,
3021203021203020,
600000000000000000000000000008000000200000000000, //n13
#E
100000100000300300111100,
100000100000200000100000000000200200101010100000,
1011201000112010,
0011201000112020,
3021203021203020,
600000000000000000000000000008000000200000000000, //e13
#M
100000100000300300111111,
100000100000200000100000200200200200101010101010,
100100221100000100221100,
000000100000202020100000000000100000200200200000,
3021203021203020,
600000000000000000000000000008000000400000000000, //m13
#BRANCHSTART p,999,90
#N
1010201121102010,
1010201121101120,
100000202020100000200000100100200200100000100000,
1212121210112211,
1010201121102010,
1010201121101120,
100000202020100000200000100000200200100000100000,
1222122212221000, //n21
#E
1010201121102010,
1010201121101120,
100000202020100000200000100100200200100000100000,
1212121210112211,
1010201121102010,
1010201121101120,
100000202020100000200000100000200200100000100000,
1222122212221000, //e21
#M
100000101010200000100100200100100100200000100000,
1011201121121120,
100000202020100000200200100100200200100200100000,
100200100200100200100200101010100100200200100100,
100000101010200000100100200100100100200000100000,
1011201121121120,
100000202020100000200200100100200200100200100000,
1222122212221000, //m21
#BRANCHSTART p,999,90
#N
1020201121102210,
1020201121102210,
1020201121121120,
1011202010112020,
1022202010202020,
1022102010221000,
12121122,
33443330, //n29
#E
1020201121102210,
1020201121102210,
1020201121121120,
1011202010112020,
1022202010202020,
1022102010221000,
12121122,
33443330, //e29
#M
100000102010200000100100200100100100200200100000,
100000100100200000100100200100100200100100200000,
100000102010200000100100200100100200100100200000,
1011202210112210,
1022202010202202,
1022102210221110,
1020112010102020,
33443330, //m29
#BRANCHSTART p,999,90
#N
#BPMCHANGE 240
#MEASURE 3/4
122,
100200202,
122,
102202200,
102100200,
102100200,
101200200,
122202200,
122,
100200202,
122,
102202200, //n41
#E
#BPMCHANGE 240
#MEASURE 3/4
122,
100200202,
122,
102202200,
102100200,
102100200,
101200200,
122202200,
122,
100200202,
122,
102202200, //e41
#M
#BPMCHANGE 240
#MEASURE 3/4
100202202,
102111202,
100202202,
122202200,
102102202,
102102202,
101202202,
122202200,
100202202,
102111202,
100202202,
122202200, //m41
#BRANCHSTART p,999,90
#N
#BPMCHANGE 180
#MEASURE 4/4
#SCROLL 1.333
333333,
444444,
300444,
600000000000000000000000000000000000000008000000,
#SCROLL 1
100000200200200000101010100000100000202020202020, //n46
#E
#BPMCHANGE 180
#MEASURE 4/4
#SCROLL 1.333
333333,
444444,
300444,
600000000000000000000000000000000000000008000000,
#SCROLL 1
100000200200200000101010100000100000202020202020, //e46
#M
#BPMCHANGE 180
#MEASURE 4/4
#SCROLL 1.333
333444,
333444,
300334,
600000000000000000000000000000000000000008000000,
#SCROLL 1
100000200200200000101010100000100000202020202020, //m46
#BRANCHSTART p,-1,999
#N
100000000000100000100100201010101010200000
#GOGOSTART
000000,
1011201202102011,
1111201202112011,
1011211010112110,
1010202030221111, //n51
1011201202102011,
1111201202112011,
1011221210112212,
1010202030222022,
1011201202102011,
1111201202112011,
1011211010112110,
3030400012222220, //n59
#E
100000000000100000100100201010101010200000
#GOGOSTART
000000,
1011201202102011,
1111201202112011,
1011211010112110,
1010202030221111, //e51
1011201202102011,
1111201202112011,
1011221210112212,
1010202030222022,
1011201202102011,
1111201202112011,
1011211010112110,
3030400012222220, //e59
#M
100000000000100000100100201010101010200000
#GOGOSTART
000000,
1011201202102011,
1111201202112011,
1011211010112110,
1010202030221111, //m51
1011201202102011,
1111201202112011,
1011221210112212,
1010202030222022,
1011201202102011,
1111201202112011,
1011211010112110,
3030400012222220, //m59
#BRANCHSTART p,999,90
#N
3000000022222220,
100000100100200000100200000200100000200000101010,
1011212011212010,
03333040, //n63
#GOGOEND
#E
3000000022222220,
100000100100200000100200000200100000200000101010,
1011212011212010,
03333040, //e63
#GOGOEND
#M
3000000022222220,
100100100100200000100200000200100100200000202020,
2211211212112010,
03333040, //m63
#GOGOEND
#BRANCHSTART p,999,90
#N
2020202202202010,
2020202202202010,
122200100200122200100200,
100000200000100000200000100100100100202020200000,
2020202202202010,
2020202202202010,
100222200100222200100222,
200000200200200000200200100100100100202020200000,
7,
0000000080000011,
1020101201211011,
1020101201222222, //n75
#E
2020202202202010,
2020202202202010,
122200100200122200100200,
100000200000100000200000100100100100202020200000,
2020202202202010,
2020202202202010,
100222200100222200100222,
200000200200200000200200100100100100202020200000,
7,
0000000080000011,
1020101201211011,
1020101201222222, //e75
#M
2220202212212210,
2220202212212210,
122200100200122200100200,
100000200000100000200000100100100100202020101010,
2220202212212210,
2220202212212210,
100222200100222200100222,
200200200200200000200200100100100100202020101010,
7,
0000000080000011,
1020101201211011,
1020101201222222, //m75
#BRANCHSTART p,999,90
#N
#GOGOSTART
1011201201102020,
1011201201102010,
1011201201102020,
1011201202211221,
1011201201102020,
1011201201102010,
1121112111211121,
100100100100100100100100101010101010200000300000, //n83
#E
#GOGOSTART
1011201201102020,
1011201201102010,
1011201201102020,
1011201202211221,
1011201201102020,
1011201201102010,
1121112111211121,
100100100100100100100100101010101010200000300000, //e83
#M
#GOGOSTART
1011211201101120,
1011211202211221,
1011211201101120,
1011211212211221,
1011211201101120,
1011211202211221,
1121112111211121,
101010101010100100100100101010101010200000300000, //m83
#BRANCHSTART p,999,90
#N
01114223,
01114223,
01114223,
04433020,
#GOGOEND
0,
0,
0, //n90
#E
01114223,
01114223,
01114223,
04433020,
#GOGOEND
0,
0,
0, //e90
#M
000100100100400222200300,
000100100100400222200300,
000100100100400222200300,
04433020,
#GOGOEND
0,
0,
0, //m90
#BRANCHEND
#END
COURSE:Oni
LEVEL:8
BALLOON:26,10,12
SCOREINIT:1760
SCOREDIFF:0
#START
000000000000000000000000000000000000000000000000,
200000000000000000000000000000000000000000000000,
000000000000000000000000000000000000000000000000,
200000000000000000000000200000000000000000000000,
200000000000000000000000200000000000000000000000,
200000000000200000000000200000000000200000000000,
200000200200200000200200200000200000100000200000,
200000000000200000000000100000100000200000200000,
100000100000200000100000000000200200100100200000,
100000100000200000100000000000100000200000100000,
000000100000200000100000000000100000200000200000,
300000000000200000300000000000200000300000000000,
300000004000000030000000400000100100200000000000,
100000100000200000100100000100200000200000100000,
100000100000200000100100000100200200100100200000,
000000200200100000200000100100200000200000100000,
400000100000400000100000400000100000400000000000,
100000100000200000100100000100200000200000100000,
100000100000200000100100000100200000100100200000,
100000100100200000100000200200100000100000200000,
300000200000300000200000300000200000300000000000,
200000200000200000100200000100100000100000200000,
200000200000200000100200000100100000200000100000,
200000200000200000100200000100100200100100200000,
300000000000300000000000300000000000400000000000,
600000000000000000000000000000000000000008000000,
200000000000200000000000100000000000100000000000,
700000000000000000000000000000000000000000000000,
000000000000000000000000000000000000000000800000,
#MEASURE 3/4
#BPMCHANGE 240
#SCROLL 0.75
100000000000200000000000200000000000,
100000000000200000000000200000002000,
100000000000200000000000200000000000,
100000000000200000000000200000000000,
100000001000200000000000200000000000,
100000001000200000000000200000000000,
100000001000200000002000200000002000,
100000000000200000000000200000000000,
100000000000200000000000200000000000,
100000000000200000000000200000002000,
100000000000200000000000200000000000,
100000000000200000000000200000000000,
#MEASURE 4/4
#BPMCHANGE 180
#SCROLL 1
300000001000000010000000200000001000000010000000,
400000001000000010000000200000002000000020000000,
300000000000000000000000300000003000000040000000,
600000000000000000000000000000000000000008000000,
7008,
#SECTION
#BRANCHSTART p,75,999
#N
30003000302220
#GOGOSTART
10,
0010202210102010,
0011201020002010,
0011202012101020,
3000400030222010,
0010202210102010,
0011201020002010,
0011202012101020,
3000400030002022,
1010202210102010,
0011201020002010,
000000100100200000200000100200100000500008000000,
3000400030222000,
#E
30003000302220
#GOGOSTART
11,
1022100010221000,
1111202010212010,
0022201210222010,
3000400030222011,
1022100010221000,
1111202010212010,
0022201210222010,
3000400030001011,
1022100010221000,
1111202010212010,
000000200200200000100200100000200200500008000000,
3000400030222000,
#M
0000000
#GOGOSTART
0,
,
,
,
,
,
,
,
,
,
,
,
,
#SECTION
#BRANCHSTART p,75,90
#N
30002021,
1010202210201021,
1020201110202010,
03333040,
#E
30002021,
1010202210201021,
1020201110202010,
03333040,
#M
3000000022222022,
1010201102201120,
1020201122111120,
03333040,
#BRANCHEND
#GOGOEND
200000200000200000200200000200200000100000200000,
200000200000200000200200000200200000100000200000,
100000000000100000200000100000000000100000200000,
100000200000100000200000100100100100200200200200,
100000100000200000100100000100100000100000200000,
100000100000200200100100000000100000200000100000,
000000200000100000000000200000100000000000200200,
200000200100200000200200100100100100200200200200,
500000000000000000000000000000000000000000000000,
000000000000000000000000000000000008000000000000,
100000200000200000100200000200200000100000200000,
100000200000200000100200000200200200100100200000,
#GOGOSTART
100000100000200000100100000200200000100100200000,
100000100000200000100100000200200100100000200000,
100000100000200000100100200100100000100000200000,
100100100000200100100000100100200100100100200000,
100000100000200000100100000200200000100100200000,
200200200000100000200000000000200200100100200200,
100100100100100100100100100100100100100100100100,
700000000000000000000000000000000000800000300000,
000000000000000000000000400000400000000000300000,
000000000000000000000000400000400000000000300000,
000000000000000000000000400000400000000000300000,
000000400000400000300000300000000000200000000000,
#GOGOEND
#END
COURSE:Hard
LEVEL:6
BALLOON:7,7,16,34,24,7
SCOREINIT:3030
SCOREDIFF:0
#START
000000000000000000000000000000000000000000000000,
200000000000000000000000000000000000000000000000,
000000000000000000000000000000000000000000000000,
200000000000000000000000200000000000000000000000,
200000000000000000000000200000000000000000000000,
200000000000200000000000200000000000200000000000,
200000200200200000200000200000000000100000000000,
200000000000200000000000100000100000200000200000,
100000100000200000100000000000000000200000000000,
500000000000000000000000000000000000000000000000,
000000000000000000000000000008000000000000000000,
300000000000000000300000000000000000300000000000,
300000004000000030000000400000000000200000000000,
100000100000200000100100000000100000100000000000,
100000100000200000100100000000100000100000000000,
7008,
400000000000400000000000400000000000400000000000,
100000100000200000100100000000100000100000000000,
100000100000200000100100000000100000100000000000,
7008,
300000000000300000000000300000000000300000000000,
200000200000100000200200000000200000200000000000,
200000200000100000200200000000200000200000000000,
200000200000100000200200000000200000200000000000,
300000000000300000000000300000000000400000000000,
600000000000000000000000000008000000000000000000,
200000000000200000000000100000000000100000000000,
7,
00000008,
#MEASURE 3/4
#BPMCHANGE 240
#SCROLL 0.75
100000000000200000000000200000000000,
100000000000000000000000200000000000,
100000000000200000000000200000000000,
100000000000000000000000000000000000,
100000000000200000000000200000000000,
100000000000200000000000200000000000,
100000000000000000000000000000000000,
100000000000000000000000000000000000,
100000000000200000000000200000000000,
100000000000000000000000200000000000,
100000000000200000000000200000000000,
100000000000000000000000000000000000,
#MEASURE 4/4
#BPMCHANGE 180
#SCROLL 1
9,
,
,
8,
000000200000000000000000200000000000200000000000,
300000000000300000000000300000000000000000
#GOGOSTART
100000,
000000200000200000100000100000200000200000100000,
000000100000200000100000100000000000200000100000,
000000200000200000100000100000200000200000100000,
300000000000400000000000300000000000000000100000,
000000200000200000100000100000200000200000100000,
000000100000200000100000100000000000200000100000,
000000200000200000100000100000200000200000100000,
300000000000400000000000300000000000000000100000,
000000200000200000100000100000200000200000100000,
000000100000200000100000100000000000200000100000,
000000200000200000100000100000200000200000100000,
300000000000400000000000300000000000000000000000,
400000000000000000000000000000000000000000200000,
000000200000100000200000200000000000100000200000,
000000100000100000200000200000100000100000300000,
000000300000300000300000300000000000400000000000,
#GOGOEND
200000000000200000200000000000200000200000000000,
200000000000200000200000000000200000200000000000,
200000000000200000200000200000000000200000200000,
200000000000200000000000200000000000200000000000,
200000000000200000200000000000200000200000000000,
200000200000200000200000000000200000200000000000,
000000200000200000000000200000200000000000200000,
200000000000200000000000200000200000200200200000,
9,
,
8,
,
#GOGOSTART
100000000000100000100100000000100000100000000000,
100000000000100000100100000000200000200000000000,
100000000000100000100100000000100000100000000000,
200000000000200000200200000000100000100000000000,
100000000000100000100100000000100000100000000000,
100000000000100000100100000000200000200000000000,
100000000000100000100100000000100000100100100000,
700000000000000000000000000000000000800000300000,
000000000000000000000000400000400000000000300000,
000000000000000000000000400000400000000000300000,
000000000000000000000000400000400000000000300000,
000000400000400000300000300000000000200000000000,
#GOGOEND
#END
COURSE:Normal
LEVEL:5
BALLOON:5,5,13,24,16,5
SCOREINIT:4680
SCOREDIFF:0
#START
000000000000000000000000000000000000000000000000,
200000000000000000000000000000000000000000000000,
000000000000000000000000000000000000000000000000,
200000000000000000000000000000000000000000000000,
200000000000000000000000000000000000000000000000,
200000000000200000000000200000000000200000000000,
200000000000200000000000200000000000000000000000,
100000000000100000000000100000100000000000000000,
100000000000100000100000000000000000000000000000,
500000000000000000000000000000000000000000000000,
000000000000000000000000000008000000000000000000,
300000000000000000300000000000000000300000000000,
300000003000000030000000300000000000000000000000,
100000000000000000100000000000100000100000000000,
100000000000000000100000000000100000100000000000,
7008,
400000000000400000000000400000000000400000000000,
100000000000000000100000000000100000100000000000,
100000000000000000100000000000100000100000000000,
7008,
300000000000300000000000300000000000300000000000,
200000000000000000200000000000200000200000000000,
200000000000000000200000000000200000200000000000,
200000000000000000200000000000200000200000000000,
300000000000300000000000300000000000400000000000,
600000000000000000000000000008000000000000000000,
200000000000200000000000100000000000100000000000,
7,
00000008,
#MEASURE 3/4
#BPMCHANGE 240
#SCROLL 0.75
100000000000000000000000100000000000,
100000000000000000000000000000000000,
200000000000000000000000200000000000,
200000000000000000000000000000000000,
100000000000100000000000000000000000,
100000000000100000000000000000000000,
100000000000000000000000000000000000,
200000000000000000000000000000000000,
100000000000000000000000100000000000,
100000000000000000000000000000000000,
200000000000000000000000200000000000,
200000000000000000000000000000000000,
#MEASURE 4/4
#BPMCHANGE 180
#SCROLL 1
9,
,
,
8,
000000200000000000000000200000000000200000000000,
300000000000300000000000300000000000000000
#GOGOSTART
100000,
000000100000100000000000100000000000000000100000,
000000100000100000000000100000000000000000100000,
000000100000100000000000200000000000200000000000,
300000000000400000000000300000000000000000100000,
000000100000100000000000100000000000000000100000,
000000100000100000000000100000000000000000100000,
000000100000100000000000200000000000200000000000,
300000000000400000000000300000000000000000100000,
000000100000100000000000100000000000000000100000,
000000100000100000000000100000000000000000100000,
000000100000100000000000200000000000200000000000,
300000000000400000000000300000000000000000000000,
400000000000000000000000000000000000000000200000,
000000200000200000000000200000000000000000200000,
000000200000200000000000100000000000100000300000,
000000300000300000300000300000000000000000000000,
#GOGOEND
200000000000000000000000000000000000000000000000,
200000000000000000000000000000000000000000000000,
200000000000200000000000200000000000200000000000,
200000000000200000000000200000000000000000000000,
200000000000000000000000000000000000000000000000,
200000000000000000000000000000000000000000000000,
000000200000200000000000200000200000000000000000,
200000000000200000000000200000000000200000000000,
9,
,
8,
,
#GOGOSTART
100000000000000000100000000000000000100000000000,
100000000000000000200000000000000000100000000000,
100000000000000000100000000000000000100000000000,
200000000000000000200000000000000000200000000000,
100000000000000000100000000000000000100000000000,
100000000000000000200000000000000000100000000000,
100000000000100000100000000000100000100000000000,
700000000000000000000000000000000000800000300000,
000000000000000000000000400000400000000000300000,
000000000000000000000000400000400000000000300000,
000000000000000000000000400000400000000000300000,
000000300000300000300000300000000000200000000000,
#GOGOEND
#END
COURSE:Easy
LEVEL:4
BALLOON:4,4,11,20,12
SCOREINIT:6670
SCOREDIFF:0
#START
000000000000000000000000000000000000000000000000,
200000000000000000000000000000000000000000000000,
000000000000000000000000000000000000000000000000,
200000000000000000000000000000000000000000000000,
200000000000000000000000000000000000000000000000,
200000000000000000000000200000000000000000000000,
200000000000200000000000200000000000000000000000,
100000000000100000000000100000000000000000000000,
100000000000000000100000000000000000000000000000,
500000000000000000000000000000000000000000000000,
000000000000000000000000000008000000000000000000,
300000000000000000300000000000000000300000000000,
300000000000000000000000300000000000000000000000,
100000000000000000100000000000000000100000000000,
100000000000000000100000000000000000100000000000,
7008,
400000000000400000000000400000000000000000000000,
100000000000000000100000000000000000100000000000,
100000000000000000100000000000000000100000000000,
7008,
300000000000300000000000300000000000000000000000,
200000000000000000200000000000000000200000000000,
200000000000000000200000000000000000200000000000,
200000000000000000200000000000000000200000000000,
300000000000300000000000300000000000000000000000,
600000000000000000000000000008000000000000000000,
100000000000100000000000100000000000000000000000,
7,
00000008,
#MEASURE 3/4
#BPMCHANGE 240
#SCROLL 0.75
100000000000000000000000000000000000,
100000000000000000000000000000000000,
200000000000000000000000000000000000,
200000000000000000000000000000000000,
100000000000000000000000000000000000,
100000000000000000000000000000000000,
100000000000000000000000000000000000,
000000000000000000000000000000000000,
000000000000000000000000000000000000,
100000000000000000000000000000000000,
100000000000000000000000000000000000,
200000000000000000000000000000000000,
200000000000000000000000000000000000,
#MEASURE 4/4
#BPMCHANGE 180
#SCROLL 1
9,
,
,
8,
,
300000000000000000000000300000000000000000
#GOGOSTART
100000,
000000000000100000000000100000000000000000100000,
000000000000100000000000100000000000000000100000,
000000000000100000000000100000000000000000000000,
300000000000300000000000300000000000000000100000,
000000000000100000000000100000000000000000100000,
000000000000100000000000100000000000000000100000,
000000000000100000000000100000000000000000000000,
300000000000300000000000300000000000000000100000,
000000000000100000000000100000000000000000100000,
000000000000100000000000100000000000000000100000,
000000000000100000000000100000000000000000000000,
400000000000400000000000400000000000000000000000,
400000000000000000000000000000000000000000200000,
000000000000200000000000200000000000000000100000,
000000000000100000000000100000000000000000300000,
000000000000300000000000300000000000000000000000,
#GOGOEND
200000000000000000000000000000000000000000000000,
200000000000000000000000000000000000000000000000,
200000000000000000000000200000000000000000000000,
200000000000200000000000200000000000000000000000,
200000000000000000000000000000000000000000000000,
200000000000000000000000000000000000000000000000,
200000000000000000000000200000000000000000000000,
200000000000200000000000200000000000000000000000,
9,
,
8,
,
#GOGOSTART
100000000000000000100000000000000000000000000000,
100000000000000000200000000000000000000000000000,
100000000000000000100000000000000000000000000000,
200000000000000000200000000000000000000000000000,
100000000000000000100000000000000000000000000000,
100000000000000000200000000000000000000000000000,
100000000000000000100000000000000000000000000000,
100000000000000000100000000000000000000000300000,
000000000000000000000000400000000000000000300000,
000000000000000000000000400000000000000000300000,
000000000000000000000000400000000000000000300000,
000000000000300000000000300000000000000000000000,
#GOGOEND
#END