This commit is contained in:
2026-03-04 23:59:27 +09:00
parent 6e0312f5b4
commit 4b4e2b8c98
1128 changed files with 668765 additions and 0 deletions

522
tja/1088.tja Normal file
View File

@@ -0,0 +1,522 @@
//TJADB Project
TITLE:Promise the Star
TITLEJA:プロミスザスター
SUBTITLE:--BiSH
SUBTITLEJA:BiSH
BPM:170
WAVE:Promise the Star.ogg
OFFSET:-6.250
DEMOSTART:55.985
COURSE:Edit
LEVEL:8
SCOREINIT:1490
SCOREDIFF:0
#START
,
500000000000000000000000000000000000000008000000,
#GOGOSTART
100100100100200000100100200000100000200000100000,
100100100000200000100100100000200200100000200000,
100100100100200000100100200000100000200000100000,
100100100000200000100100100000200200100000200000,
100100100000200000100100100000200000100100100000,
200000100100100000200000100100100000200000100000,
100100100100200000100100100100200000100100100100,
200000100100100100100000400000400000000000000000,
#GOGOEND
100000000000100000100000100000100000100100100100,
100000000000100000100000100000100000100100100100,
100000000000100000100000100000100000100100100100,
100000000000100000100000100100100100200000100000,
100000000000100000100000100000100000100100100100,
100000000000100000100000100000100000100100100100,
100000000000100000100000100000100000100100100100,
100000000000100000100000200200100100200000100100,
100000100000100000200000100000100000200100100100,
100000100000100000200000100000100000200100100100,
100000100000100000200000100000100000200100100100,
100000100000200000200000100100100100200000200000,
100000100000100000200000100000100000200100100100,
100000100000100000200000100000100000200100100100,
100000100000200000100000200000100000200100100100,
100000200000200000100100200000200000100100100100,
100000100000000000100100200000100000200000100000,
000000100000100100100100200000200000100000000000,
100000100000000000100100200000100000200000100000,
000000100000100100100100200000100000200000000000,
300000000000100000100100100000100100100000100100,
200000100100100000100100100000100100100000100100,
200000100100100000100100200000100100100000100100,
200000100100200000100100200000100100200000100000,
200200100000200200100000200200100000200000300000,
000000300000300000000000000000000000000000000000,
#GOGOSTART
100100100100200000100000200000100000100100100100,
200000100000200000100000100100200200100000200000,
100100100100200000100000200000100000100100100100,
200000100000200000100000200200200200100000000000,
100100100000200000100100100000200000100000200200,
100100100000200000100000200200100000200000100000,
200200100100200000100000200200100100200000100000,
200000000000200200200000200200200000200200200000,
100100100100200000100000200000100000100100100100,
200000100000200000100000100100200200100000200000,
100100100100200000100000200000100000100100100100,
200000100000200000100000200200200200100000000000,
100100100000200000100100100000200000100000200200,
100100100000200000100000200200100000200000100000,
200200100100200000100000200200100100200000100000,
200000000000200200200000200200200000100000200000,
100000000000100000200000100000200200100000200200,
100000200000100000200200100000200200100000200200,
100100100000200000100000100100100100200000100000,
200200100100200000000000100000200200100000200000,
100100100000200000100100100000200000100100100000,
200200200000100000200200200000100000200200200000,
100100100100100000200200200200200000100000300000,
#GOGOEND
#BPMCHANGE 180
#SCROLL 0.94444444444
0
#BPMCHANGE 170
#SCROLL 1
000,
#GOGOSTART
100100100100200000100100200000100000200000100000,
100100100000200000100100100000200200100000200000,
100100100100200000100100200000100000200000100000,
100100100100200000100100100100200000300000000000,
100100100000200000100100100000200000100100100000,
200000100100100000200000100100100000200000100000,
100100100100200000100100100100200000100100100100,
200000100100100100100000200200200200100000200000,
#GOGOEND
300000000000000000000000000000000000000000000000,
000000000000000000000000000000000000000000000000,
000000000000000000000000000000000000000000000000,
500000000000000000000000000000000000000000000008,
#END
COURSE:Oni
LEVEL:6
BALLOON:28,65
SCOREINIT:2950
SCOREDIFF:0
#START
,
,
#GOGOSTART
100100100000200000000000100000100000200000100000,
100100100000200000000000100000200000100000200000,
100100100000200000000000100000100000200000100000,
100100100000200000000000100000200000100000200000,
100100100000200000100100100000100000200000000000,
100100100000200000100100100000100000200000200000,
700000000000000000000000000000000000000000000000,
000000000000000000000000800000000000000000000000,
#GOGOEND
100000000000000000100000000000000000100000000000,
100000000000100000100000000000000000200000000000,
100000000000000000100000000000000000100000000000,
100000000000100000100000000000000000200000100000,
100000000000100000000000100000000000100000100000,
200000100000000000100000000000100000100000200000,
000000200000000000000000000000000000000000000000,
200000000000000000200000100000000000200000000000,
100000000000200000100000000000100000200000000000,
100000000000200000100100100000100000200000000000,
100000000000200000100000000000100000200000000000,
100000000000200000100000100100100000200000000000,
100000000000200000100000000000100000200000000000,
100000000000200000100100100000100000200000200000,
500000000000000000000000000000000000000000000000,
000000000008000000000000000000000000000000000000,
100100100000200000000000200000000000100000100000,
000000200000200000000000000000000000100000200000,
100100100000100000100000000000200000200000000000,
000000000000000000000000200000000000100000200000,
100000000000100100100000100000100000200000000000,
100000000000100100100000200000100000200000100000,
300000000000100000200000300000000000100000200000,
300000200000300000200000300000200000600000000000,
000000000000000000000000000000000000000008000000,
000000000000000000000000000000000000000000000000,
#GOGOSTART
300000000000300000000000000000000000400000000000,
400000000000100000100000200200200000100000200000,
300000000000300000000000000000000000400000000000,
400000000000100000100000200200200000200000000000,
100100100000200000100000000000200200200000100000,
100100100000200000000000100100100000200000000000,
100100100000200000100000200000100000200200200000,
000000000000200000200000200200200000200000200000,
300000000000300000000000000000000000400000000000,
400000000000100000200000100100100000200000200000,
300000000000300000000000000000000000400000000000,
400000000000100000200000100100100000200000000000,
100100100000200000100000000000200200200000100000,
100100100000200000000000100100100000200000000000,
100100100000200000100000200000100000200200200000,
000000000000000000000000000000200000200000200000,
100000000000100000200000100000200000100100100000,
100000000000100000200000100000200000100100100000,
200000000000100100100000200000000000100100100000,
200000000000000000000000100000000000100000000000,
300000000000000000000000100100100000100000100000,
300000000000000000000000200200200000200000000000,
300000000000000000300000000000000000300000000000,
#GOGOEND
#BPMCHANGE 180
#SCROLL 0.94444444444
0
#BPMCHANGE 170
#SCROLL 1
222,
#GOGOSTART
000000000000600000000000000000000000000000000000,
000000000000000000000000000000000000000000000000,
000000000000000000000008000000000000000000000000,
300000000000000000300000000000000000700000000000,
000000000000000000000000000000000000000000000000,
000000000000000000000000000000000000000000000000,
000000000000000000000000000000000000000000000000,
000000000000000000000000800000000000000000000000,
#GOGOEND
200000200000200000200000000000200000000000200000,
000000000000000000000000200000000000200000000000,
200000200000200000200000000000200000000000500000,
000000000000000000000000000000000000000008000000,
#END
COURSE:Hard
LEVEL:4
BALLOON:21,42
SCOREDIFF:0
#START
,
,
#GOGOSTART
100000000000200000000000100000100000200000000000,
100000000000200000000000100000200000100000200000,
100000000000200000000000100000100000200000000000,
100000000000200000000000100000200000100000200000,
100000000000200000000000100000100000200000000000,
100000000000200000000000100000100000200000200000,
700000000000000000000000000000000000000000000000,
000000000000000000000000800000000000000000000000,
#GOGOEND
100000000000000000100000000000000000200000000000,
100000000000000000100000000000000000200000000000,
100000000000000000100000000000000000200000000000,
100000000000100000100000000000000000200000000000,
100000000000100000000000100000000000100000200000,
100000000000100000000000100000200000100000200000,
100000000000000000000000000000000000000000000000,
200000000000000000000000200000000000000000000000,
100000000000200000100000000000000000200000000000,
100000000000200000100000000000000000200000000000,
100000000000200000100000000000000000200000000000,
100000000000200000100000000000000000200000000000,
100000000000200000100000000000100000200000000000,
100000000000200000000000100000100000200000000000,
500000000000000000000000000000000000000000000000,
000000000008000000000000000000000000000000000000,
100000000000200000000000200000000000100000100000,
000000200000200000000000000000000000100000100000,
100000000000100000100000000000200000200000000000,
000000000000000000000000000000000000200000000000,
100000000000000000000000000000000000200000000000,
100000000000200000000000200000000000100000100000,
300000000000100000100000300000000000100000100000,
300000000000300000000000300000000000600000000000,
000000000000000000000000000000000000000008000000,
000000000000000000000000000000000000000000000000,
#GOGOSTART
300000000000300000000000000000000000400000000000,
400000000000000000000000100000100000100000100000,
300000000000300000000000000000000000400000000000,
400000000000000000000000200000000000200000000000,
100000000000200000100000000000200000200000100000,
100000000000200000000000100000100000200000000000,
300000000000300000000000400000000000400000000000,
000000000000200000200000200000200000200000000000,
300000000000300000000000000000000000400000000000,
400000000000000000000000100000100000100000100000,
300000000000300000000000000000000000400000000000,
400000000000000000000000200000000000200000000000,
100000000000200000100000000000200000200000100000,
100000000000200000000000100000100000200000000000,
300000000000300000000000400000000000400000000000,
000000000000000000000000000000000000000000000000,
100000000000100000000000100000100000100000000000,
100000000000100000000000100000100000100000000000,
200000000000100000100000200000000000100000100000,
200000000000000000000000100000000000100000000000,
300000000000000000000000100000000000100000100000,
300000000000000000000000200000000000200000000000,
300000000000000000300000000000000000300000000000,
#GOGOEND
#BPMCHANGE 180
#SCROLL 0.94444444444
0
#BPMCHANGE 170
#SCROLL 1
000,
#GOGOSTART
000000000000600000000000000000000000000000000000,
000000000000000000000000000000000000000000000000,
000000000000000000000008000000000000000000000000,
300000000000000000300000000000000000900000000000,
,
,
,
8,
#GOGOEND
200000000000200000200000000000200000000000200000,
000000000000000000000000200000000000200000000000,
200000000000200000200000000000200000000000200000,
#END
COURSE:Normal
LEVEL:3
BALLOON:12,8,8,25
SCOREDIFF:0
#START
,
,
#GOGOSTART
100000000000200000000000100000000000200000000000,
100000000000000000000000100000100000100000000000,
100000000000200000000000100000000000200000000000,
100000000000000000000000100000100000100000000000,
100000000000200000000000100000000000200000000000,
100000000000000000000000100000100000100000000000,
700000000000000000000000000000000000000000000000,
000000000000000000000000800000000000000000000000,
#GOGOEND
100000000000000000100000000000000000000000000000,
100000000000000000100000000000000000000000000000,
100000000000000000100000000000000000000000000000,
200000000000000000200000000000000000000000000000,
100000000000100000000000100000000000000000000000,
100000000000100000000000100000000000000000000000,
100000000000000000000000000000000000000000000000,
000000000000000000000000000000000000000000000000,
100000000000000000100000000000000000100000000000,
100000000000000000100000000000000000100000000000,
100000000000000000100000000000000000100000000000,
200000000000000000200000000000000000000000000000,
100000000000000000100000000000000000100000000000,
100000000000000000000000100000000000100000000000,
500000000000000000000000000000000000000000000000,
000000000008000000000000000000000000000000000000,
100000000000100000000000100000000000000000100000,
000000100000100000000000000000000000000000000000,
100000000000100000100000000000100000100000000000,
000000000000000000000000000000000000000000000000,
100000000000000000000000000000000000100000000000,
100000000000100000000000200000000000200000000000,
300000000000000000000000300000000000000000000000,
300000000000300000000000300000000000600000000000,
000000000000000000000000000000000000000008000000,
000000000000000000000000000000000000000000000000,
#GOGOSTART
300000000000300000000000000000000000300000000000,
300000000000000000000000100000100000100000000000,
300000000000300000000000000000000000300000000000,
300000000000000000000000200000000000200000000000,
100000000000100000100000000000100000000000000000,
100000000000100000000000200000000000200000000000,
7,
8,
300000000000300000000000000000000000300000000000,
300000000000000000000000100000100000100000000000,
300000000000300000000000000000000000300000000000,
300000000000000000000000200000000000200000000000,
100000000000100000100000000000100000000000000000,
100000000000100000000000200000000000200000000000,
7,
8,
100000000000100000000000100000000000100000000000,
100000000000100000000000100000000000100000000000,
200000000000000000000000200000000000000000000000,
200000000000000000000000100000000000100000000000,
300000000000000000000000100000000000100000000000,
300000000000000000000000100000000000100000000000,
300000000000000000300000000000000000300000000000,
#GOGOEND
#BPMCHANGE 180
#SCROLL 0.94444444444
0
#BPMCHANGE 170
#SCROLL 1
222,
#GOGOSTART
000000000000600000000000000000000000000000000000,
000000000000000000000000000000000000000000000000,
000000000000000000000008000000000000000000000000,
300000000000000000300000000000000000900000000000,
000000000000000000000000000000000000000000000000,
000000000000000000000000000000000000000000000000,
000000000000000000000000000000000000000000000000,
800000000000000000000000000000000000000000000000,
#GOGOEND
200000000000200000000000000000200000000000200000,
000000000000000000000000000000000000000000000000,
200000000000200000000000000000200000000000200000,
#END
COURSE:Easy
LEVEL:3
BALLOON:10,7,7,20
SCOREDIFF:0
#START
,
,
#GOGOSTART
100000000000000000000000100000000000000000000000,
100000000000000000000000200000000000000000000000,
100000000000000000000000100000000000000000000000,
100000000000000000000000200000000000000000000000,
100000000000000000000000100000000000000000000000,
100000000000000000000000200000000000000000000000,
700000000000000000000000000000000000000000000000,
000000000000000000000000800000000000000000000000,
#GOGOEND
100000000000000000000000000000000000000000000000,
100000000000000000000000000000000000000000000000,
100000000000000000000000000000000000000000000000,
200000000000000000000000000000000000000000000000,
100000000000000000000000000000000000000000000000,
100000000000000000000000000000000000000000000000,
100000000000000000000000000000000000000000000000,
000000000000000000000000000000000000000000000000,
100000000000000000100000000000000000000000000000,
100000000000000000100000000000000000000000000000,
100000000000000000100000000000000000000000000000,
200000000000000000000000000000000000000000000000,
100000000000000000100000000000000000000000000000,
100000000000000000000000000000000000000000000000,
500000000000000000000000000000000000000000000000,
000000000008000000000000000000000000000000000000,
100000000000000000000000000000000000000000100000,
000000000000000000000000000000000000000000000000,
200000000000200000000000000000000000000000200000,
000000000000000000000000000000000000000000000000,
100000000000000000000000000000000000000000000000,
100000000000000000000000000000000000000000000000,
300000000000000000000000300000000000000000000000,
300000000000300000000000300000000000600000000000,
000000000000000000000000000000000000000008000000,
000000000000000000000000000000000000000000000000,
#GOGOSTART
300000000000300000000000000000000000300000000000,
300000000000000000000000000000000000000000000000,
300000000000300000000000000000000000300000000000,
300000000000000000000000000000000000000000000000,
100000000000100000000000000000000000000000000000,
100000000000100000000000100000000000000000000000,
7,
8,
300000000000300000000000000000000000300000000000,
300000000000000000000000000000000000000000000000,
300000000000300000000000000000000000300000000000,
300000000000000000000000000000000000000000000000,
100000000000100000000000000000000000000000000000,
100000000000100000000000100000000000000000000000,
7,
8,
100000000000100000000000100000000000000000000000,
100000000000100000000000100000000000000000000000,
200000000000000000000000200000000000000000000000,
200000000000000000000000000000000000000000000000,
300000000000000000000000000000000000000000000000,
300000000000000000000000000000000000000000000000,
300000000000000000300000000000000000300000000000,
#GOGOEND
#BPMCHANGE 180
#SCROLL 0.94444444444
0
#BPMCHANGE 170
#SCROLL 1
000,
#GOGOSTART
000000000000600000000000000000000000000000000000,
000000000000000000000000000000000000000000000000,
000000000000000000000008000000000000000000000000,
000000000000000000000000000000000000900000000000,
000000000000000000000000000000000000000000000000,
000000000000000000000000000000000000000000000000,
000000000000000000000000000000000000000000000000,
800000000000000000000000000000000000000000000000,
#GOGOEND
200000000000000000000000000000000000000000200000,
000000000000000000000000000000000000000000000000,
200000000000000000000000000000000000000000200000,
#END