This commit is contained in:
2026-03-04 23:59:27 +09:00
parent 6e0312f5b4
commit 4b4e2b8c98
1128 changed files with 668765 additions and 0 deletions

180
tja/1090.tja Normal file
View File

@@ -0,0 +1,180 @@
//TJADB Project
TITLE:Dried Flower
TITLEJA:ドライフラワー
SUBTITLE:--Yuuri
BPM:74
WAVE:Dried Flower.ogg
OFFSET:-3.421
DEMOSTART:67.414
COURSE:Oni
LEVEL:7
BALLOON:14
SCOREINIT:1240
SCOREDIFF:390
#START
100000000000200000000100000010100000200000200010,
100000000000200000000100000010100000102020100020,
100000000000200000000100000010100000200000200010,
100000100020000000500000000000000000000008000000,
100100200101100100200200,
100100200101100100200200,
100100202201100100200200,
11210002,
100100200101200100000200,
100100200101100200000100,
200100200102201100000200,
100100200201101200000200,
500000000000000008000000200000100000200000200010,
100202200101100200101201,
500000000000000008000000200000100000200000100010,
100202100201100102101200,
500000000000000008000000200000100000200000200010,
100202200101100200101201,
100101200101200102200101,
100202100201100000200101,
#GOGOSTART
100200100102100200100201,
100201100202100000100202,
100200100202100200100202,
100202200202100000302100,
301100401100100200100000,
102020100202100200100102,
14323323,
30101221,
#GOGOEND
7080,
,
,
,
#END
COURSE:Hard
LEVEL:5
BALLOON:12
SCOREINIT:1330
SCOREDIFF:490
#START
1000200100102000,
1000200100102000,
2000100100102000,
100000000100000000500000000000000000000008000000,
10121120,
10121110,
20212210,
11210002,
12111102,
12111202,
11221202,
12111202,
500000000000000008000000100000000000100000200000,
100000200001100100200100,
500000000000000008000000100000000000100000200000,
100101100101100000200000,
500000000000000008000000100000000000100000200000,
100000200001100100100200,
12121120,
12121000,
#GOGOSTART
100000200100100000100101,
100101100202200000200200,
100000200100100000100101,
100202200202200000400000,
30301110,
10111033,
03303303,
30101221,
#GOGOEND
7080,
,
,
,
#END
COURSE:Normal
LEVEL:3
BALLOON:9
SCOREINIT:1270
SCOREDIFF:645
#START
1201,
1201,
2201,
100000000000000000500000000000000000000008000000,
10101110,
10101110,
20102220,
10110000,
10111000,
10111000,
20222000,
10111000,
500000000000000008000000100000000000100000100000,
1110,
500000000000000008000000100000000000100000100000,
1210,
500000000000000008000000100000000000100000100000,
1112,
10201110,
1120,
#GOGOSTART
10111010,
10111020,
10201011,
10222030,
30301110,
10101033,
03303303,
30002022,
#GOGOEND
7080,
,
,
,
#END
COURSE:Easy
LEVEL:1
BALLOON:7
SCOREINIT:1510
SCOREDIFF:1560
#START
1,
1,
2,
500000000000000000000000000008000000000000000000,
1010,
1010,
2020,
1100,
1110,
1110,
2020,
1010,
500000000000000008000000000000000000000000000000,
1010,
500000000000000008000000000000000000000000000000,
1110,
500000000000000008000000000000000000000000000000,
1010,
1110,
1110,
#GOGOSTART
1010,
1110,
1010,
2220,
3310,
1113,
0330,
3020,
#GOGOEND
7080,
,
,
,
#END