This commit is contained in:
2026-03-04 23:59:27 +09:00
parent 6e0312f5b4
commit 4b4e2b8c98
1128 changed files with 668765 additions and 0 deletions

415
tja/1091.tja Normal file
View File

@@ -0,0 +1,415 @@
//TJADB Project
TITLE:Cheers! Delicious Party♡Pretty Cure
TITLEJA:Cheersデリシャスパーティ♡プリキュア
SUBTITLE:--Machico/Delicious Party♡Pretty Cure
SUBTITLEJA:
BPM:182
WAVE:Cheers! Delicious Party Pretty Cure.ogg
OFFSET:-2.797
DEMOSTART:58.498
COURSE:Oni
LEVEL:3
BALLOON:24,15,15
SCOREINIT:3620
SCOREDIFF:0
#START
#MEASURE 3/4
#BARLINEOFF
011,
#BARLINEON
#MEASURE 4/4
#GOGOSTART
30001015,
000000000000000000000008000000000000100000000000,
10110105,
000000000000000000000008000000000000100000000000,
10110101,
02202010,
30330303,
0333, //9
7,
08,
10210101,
01110112,
10011222,
0122,
10011222,
02221010, //17
#GOGOEND
10011101,
0211,
10011101,
0221,
10110101,
00101001,
10110101,
0022202000201000, //25
10211201,
01201010,
10211201,
02022010,
10201203,
0112,
10110121,
0010100022202000, //33
10202021,
02102020,
1113,
00101101,
0011100010002010,
0011100010002000,
30030030,
03003070,
00000083,
03301010, //43
#GOGOSTART
3000201110001010,
01101020,
1000111000100010,
02020220,
10210101,
0022200020001000,
10110101,
0022200020101000, //51
10012011,
1121,
1116,
000000000000000000000008000000000000100000000000,
10110101,
0022200020001000,
10110101,
01102020, //59
1000101110001011,
1000202220001000,
10110101,
0001,
30330303,
0333,
700000000000000000000000000000000000000000000008,
#GOGOEND
0, //67
#END
COURSE:Hard
LEVEL:2
BALLOON:19,15,11,13
SCOREINIT:5330
SCOREDIFF:0
#START
#BARLINEOFF
#MEASURE 3/4
0,
#BARLINEON
#MEASURE 4/4
#GOGOSTART
30001015,
000000000000000000000008000000000000100000000000,
10110105,
000000000000000000000008000000000000100000000000,
10110101,
0221,
30330303,
0333, //9
7,
08,
10010102,
02220000,
10000222,
0111,
20000222,
02221010, //17
#GOGOEND
10001101,
0011,
10001101,
0021,
10110101,
0110,
10110102,
0001, //25
10001101,
0011,
10001101,
0001,
10101103,
0111,
10110101,
01100000, //33
10002011,
0120,
1113,
00000001,
01101001,
01101000,
500000000000000000000000000000000000000000000008,
0009,
0000000000090000,
8, //43
#GOGOSTART
30001011,
0021,
10110101,
02020010,
10110101,
0021,
10110101,
02201010, //51
10002011,
0121,
1116,
000000000000000000000008000000000000100000000000,
10110101,
0021,
10110101,
0111, //59
900000000000000000000000000000000009000000000008,
0,
10020202,
0001,
30330303,
0333,
700000000000000000000000000000000000000000000008,
#GOGOEND
0, //67
#END
COURSE:Normal
LEVEL:2
BALLOON:11,10,8,8
SCOREINIT:12740
SCOREDIFF:0
#START
#BARLINEOFF
#MEASURE 3/4
0,
#BARLINEON
#MEASURE 4/4
#GOGOSTART
30000005,
000000000000000000000008000000000000000000000000,
10000005,
000000000000000000000008000000000000000000000000,
10000001,
0,
30030303,
0330, //9
7,
08,
10000001,
0,
10000001,
0,
20000002,
0, //17
#GOGOEND
10000001,
0,
10000001,
0,
10000001,
01,
10000002,
0, //25
10000001,
0011,
10000001,
0001,
10000003,
0,
10000001,
0, //33
2,
2,
1113,
00000001,
00101001,
0110,
500000000000000000000000000000000000000000000008,
0009,
0000000000090000,
8, //43
#GOGOSTART
30000001,
0,
10000001,
0,
10010101,
0,
10010101,
0, //51
1,
1,
1116,
000000000000000000000008000000000000000000000000,
10000001,
0,
10000001,
01, //59
900000000000000000000000000000000009000000000008,
0,
10000001,
0,
30030303,
0330,
700000000000000000000000000000000000000000000008,
#GOGOEND
0, //67
#END
COURSE:Easy
LEVEL:1
BALLOON:8,7,5,6
SCOREINIT:25510
SCOREDIFF:0
#START
#BARLINEOFF
#MEASURE 3/4
0,
#BARLINEON
#MEASURE 4/4
#GOGOSTART
30000005,
000000000000000000000008000000000000000000000000,
10000005,
000000000000000000000008000000000000000000000000,
1,
0,
30000003,
0, //9
7,
08,
1,
0,
1,
0,
2,
0, //17
#GOGOEND
1,
0,
1,
0,
10000001,
0,
1,
0, //25
1,
0,
1,
0,
10000001,
0,
1,
0, //33
2,
0,
1003,
00000001,
00000001,
0,
500000000000000000000000000000000000000000000008,
0009,
0000000000090000,
8, //43
#GOGOSTART
30000001,
0,
10000001,
0,
10000001,
0,
10000001,
0, //51
1,
1,
1006,
000000000000000000000008000000000000000000000000,
1,
0,
1,
0, //59
900000000000000000000000000000000009000000000008,
0,
1,
0,
30000003,
0,
700000000000000000000000000000000000000000000008,
#GOGOEND
0, //67
#END