tja
This commit is contained in:
322
tja/11.tja
Normal file
322
tja/11.tja
Normal file
@@ -0,0 +1,322 @@
|
||||
//TJADB Project
|
||||
TITLE:Miracle☆Travel
|
||||
TITLEJA:みらくる☆トラベル
|
||||
SUBTITLE:--Emiri Katoh/Tamagotchi! Miracle Friends
|
||||
SUBTITLEJA:「たまごっち!みらくるフレンズ」より
|
||||
BPM:178
|
||||
WAVE:Miracle Travel.ogg
|
||||
OFFSET:-2.051
|
||||
DEMOSTART:50.576
|
||||
|
||||
COURSE:Oni
|
||||
LEVEL:4
|
||||
BALLOON:12,10
|
||||
SCOREINIT:690
|
||||
SCOREDIFF:195
|
||||
|
||||
|
||||
#START
|
||||
|
||||
|
||||
1110001110001110,
|
||||
0011100030303000,
|
||||
30220022,
|
||||
10220022,
|
||||
10220022,
|
||||
3333,
|
||||
30220022,
|
||||
10210122,
|
||||
10220022,
|
||||
500000000000000000000000000008000000000000100000,
|
||||
10211021,
|
||||
10211000,
|
||||
10101121,
|
||||
11011020,
|
||||
10211021,
|
||||
10211000,
|
||||
10121121,
|
||||
11014040,
|
||||
1000201010022010,
|
||||
1000201010022000,
|
||||
11101121,
|
||||
11012020,
|
||||
11210121,
|
||||
11210120,
|
||||
30330303,
|
||||
0020202022201110,
|
||||
10211020,
|
||||
10211020,
|
||||
10210102,
|
||||
01112020,
|
||||
10211020,
|
||||
10211027,
|
||||
0008,
|
||||
10021025,
|
||||
000000000000000000000000000000000008000000000000,
|
||||
33030000,//36
|
||||
|
||||
#GOGOSTART
|
||||
1110001110001110,
|
||||
0011100040004000,
|
||||
1020001110001020,
|
||||
0011100030003000,
|
||||
1110001110001110,
|
||||
0011100040004000,
|
||||
1020001110007000,
|
||||
08,
|
||||
1110001110001110,
|
||||
0011100040004000,
|
||||
1020001110001020,
|
||||
0011100030003000,
|
||||
11210121,
|
||||
0010201011102220,
|
||||
500000000000000000000000000000000000000000000008,
|
||||
0000000022202020,
|
||||
34043034,
|
||||
04303336,
|
||||
000000000000000000000000000000000008000000000000,//55
|
||||
|
||||
#GOGOEND
|
||||
10220022,
|
||||
10220022,
|
||||
1110111011101110,
|
||||
10220022,
|
||||
10210122,
|
||||
10220022,
|
||||
2220111022201110,
|
||||
500000000000000000000000000000000008000000400000,
|
||||
3,
|
||||
|
||||
|
||||
#END
|
||||
|
||||
|
||||
COURSE:Hard
|
||||
LEVEL:3
|
||||
BALLOON:8,8,10
|
||||
|
||||
#START
|
||||
11,
|
||||
10101110,
|
||||
10220022,
|
||||
10220022,
|
||||
10220022,
|
||||
3333,
|
||||
30220022,
|
||||
10210122,
|
||||
10220022,
|
||||
500000000000000000000000000008000000000000100000,
|
||||
10211001,
|
||||
10211000,
|
||||
11105000,
|
||||
000000000000000008000000000000000000000000100000,
|
||||
10211001,
|
||||
10211000,
|
||||
11150000,
|
||||
000000000000000000000008000000000000000000000000,
|
||||
10211001,
|
||||
10211000,
|
||||
11105000,
|
||||
000000000008000000000000200000200000200000000000,
|
||||
10220020,
|
||||
10210000,
|
||||
30330303,
|
||||
,
|
||||
1122,
|
||||
1122,
|
||||
10110201,
|
||||
01112020,
|
||||
1122,
|
||||
10102027,
|
||||
0008,
|
||||
10001025,
|
||||
000000000000000000000000000000000008000000000000,
|
||||
33030000,//36
|
||||
|
||||
#GOGOSTART
|
||||
11011011,
|
||||
01104040,
|
||||
11011011,
|
||||
01101110,
|
||||
11011011,
|
||||
01104040,
|
||||
11011070,
|
||||
08,
|
||||
12021012,
|
||||
02104040,
|
||||
12021012,
|
||||
02101010,
|
||||
10220121,
|
||||
01212020,
|
||||
500000000000000000000000000000000000000000000008,
|
||||
,
|
||||
34043034,
|
||||
04303336,
|
||||
000000000000000000000000000000000008000000000000,//55
|
||||
|
||||
#GOGOEND
|
||||
10220022,
|
||||
10220022,
|
||||
3333,
|
||||
30220022,
|
||||
10210122,
|
||||
10220022,
|
||||
9009,
|
||||
8,
|
||||
3,
|
||||
,
|
||||
#END
|
||||
|
||||
COURSE:Normal
|
||||
LEVEL:3
|
||||
BALLOON:6,8
|
||||
|
||||
#START
|
||||
#SCROLL 0.95
|
||||
11,
|
||||
1150,
|
||||
000000000000000000000000000008000000000000000000,
|
||||
1,
|
||||
11,
|
||||
3333,
|
||||
3,
|
||||
10110000,
|
||||
1011,
|
||||
500000000000000000000000000008000000000000100000,
|
||||
10011001,
|
||||
10011000,
|
||||
05,
|
||||
000000000000000008000000000000000000000000100000,
|
||||
10011001,
|
||||
10011000,
|
||||
00050000,
|
||||
000000000000000000000008000000000000000000000000,
|
||||
10022001,
|
||||
10022000,
|
||||
05,
|
||||
000000000000000008000000000000000000000000000000,
|
||||
1001,
|
||||
10110000,
|
||||
30330303,
|
||||
,
|
||||
11,
|
||||
22,
|
||||
11,
|
||||
22,
|
||||
11,
|
||||
22,
|
||||
1,
|
||||
1015,
|
||||
000000000000000000000000000000000008000000000000,
|
||||
3,//36
|
||||
|
||||
#GOGOSTART
|
||||
11011011,
|
||||
01100000,
|
||||
11011011,
|
||||
01100000,
|
||||
11011011,
|
||||
01100000,
|
||||
11011070,
|
||||
08,
|
||||
11011022,
|
||||
02200000,
|
||||
11011022,
|
||||
02201010,
|
||||
1,
|
||||
1011,
|
||||
500000000000000000000000000000000000000000000008,
|
||||
,
|
||||
33033033,
|
||||
03306000,
|
||||
000000000000000000000000000000000000000000000008,//55
|
||||
|
||||
#GOGOEND
|
||||
,
|
||||
11,
|
||||
3333,
|
||||
3,
|
||||
10110000,
|
||||
1011,
|
||||
9009,
|
||||
8,
|
||||
3,
|
||||
,
|
||||
#END
|
||||
|
||||
COURSE:Easy
|
||||
LEVEL:2
|
||||
BALLOON:3,5
|
||||
|
||||
#START
|
||||
#SCROLL 0.75
|
||||
,
|
||||
05,
|
||||
000000000000000000000000000008000000000000000000,
|
||||
1,
|
||||
11,
|
||||
33,
|
||||
3,
|
||||
1,
|
||||
11,
|
||||
500000000000000000000000000008000000000000000000,
|
||||
11,
|
||||
11,
|
||||
05,
|
||||
000000000000000008000000000000000000000000000000,
|
||||
11,
|
||||
11,
|
||||
00050000,
|
||||
000000000000000000000008000000000000000000000000,
|
||||
11,
|
||||
22,
|
||||
05,
|
||||
000000000000000008000000000000000000000000000000,
|
||||
1,
|
||||
11,
|
||||
6,
|
||||
000000000000000000000000000008000000000000000000,
|
||||
11,
|
||||
2,
|
||||
11,
|
||||
2,
|
||||
11,
|
||||
22,
|
||||
1,
|
||||
1015,
|
||||
000000000000000000000000000008000000000000000000,
|
||||
3,//36
|
||||
|
||||
#GOGOSTART
|
||||
3003,
|
||||
,
|
||||
3003,
|
||||
,
|
||||
3003,
|
||||
,
|
||||
3007,
|
||||
08,
|
||||
3003,
|
||||
,
|
||||
4004,
|
||||
,
|
||||
1,
|
||||
11,
|
||||
500000000000000000000000000000000000000000000008,
|
||||
,
|
||||
3003,
|
||||
06,
|
||||
000000000000000000000000000000000000000000000008,//55
|
||||
|
||||
#GOGOEND
|
||||
,
|
||||
11,
|
||||
33,
|
||||
3,
|
||||
1,
|
||||
11,
|
||||
9009,
|
||||
8,
|
||||
3,
|
||||
,
|
||||
#END
|
||||
Reference in New Issue
Block a user