tja
This commit is contained in:
266
tja/1102.tja
Normal file
266
tja/1102.tja
Normal file
@@ -0,0 +1,266 @@
|
||||
//TJADB Project
|
||||
TITLE:Ore Koso Only One
|
||||
TITLEJA:俺こそオンリーワン
|
||||
SUBTITLE:--Avataro Sentai DonBrothers
|
||||
SUBTITLEJA:「暴太郎戦隊ドンブラザーズ」より
|
||||
BPM:134
|
||||
WAVE:Ore Koso Only One.ogg
|
||||
OFFSET:-2.873
|
||||
DEMOSTART:2.836
|
||||
|
||||
//shinunchi: 22260/11630/5090/3220
|
||||
|
||||
COURSE:Oni
|
||||
LEVEL:6
|
||||
BALLOON:4,20
|
||||
SCOREINIT:920,3790
|
||||
SCOREDIFF:285
|
||||
|
||||
#START
|
||||
#GOGOSTART
|
||||
1010200010111020,
|
||||
1010200210111020,
|
||||
1010200010111020,
|
||||
03333333,
|
||||
000000000000600000000000000008000000000000000000,
|
||||
#GOGOEND
|
||||
02221111, //6
|
||||
|
||||
1020120010011020,
|
||||
1020120010111020,
|
||||
1020120010011020,
|
||||
100000100100100000200000100100000700000000080000,
|
||||
|
||||
1020120010011020,
|
||||
1020120010111020,
|
||||
7,
|
||||
0000801011101000, //14
|
||||
|
||||
1010201020001110,
|
||||
01212110,
|
||||
1010201020001110,
|
||||
01212110,
|
||||
|
||||
1010201020002220,
|
||||
01212110,
|
||||
03333033,
|
||||
03333000, //22
|
||||
|
||||
#GOGOSTART
|
||||
3000222030002220,
|
||||
1010201010111010,
|
||||
30330330,
|
||||
01121121,
|
||||
|
||||
1000111010002220,
|
||||
1010201010201011,
|
||||
11210121,
|
||||
01121112, //30
|
||||
|
||||
1000111000111000,
|
||||
0010101100101020,
|
||||
0030300030030030,
|
||||
0030301100303030,
|
||||
|
||||
1010200010111020,
|
||||
1010200210111020,
|
||||
1010200010111020,
|
||||
03333333, //38
|
||||
|
||||
000000000000600000000000000000000000000000000008,
|
||||
#GOGOEND
|
||||
0,
|
||||
0, //41
|
||||
#END
|
||||
|
||||
|
||||
COURSE:Hard
|
||||
LEVEL:3
|
||||
BALLOON:17,12
|
||||
SCOREINIT:1010,6030
|
||||
SCOREDIFF:360
|
||||
|
||||
#START
|
||||
#GOGOSTART
|
||||
11101011,
|
||||
01101011,
|
||||
11101011,
|
||||
03333333,
|
||||
000000000000600000000000000008000000000000000000,
|
||||
#GOGOEND
|
||||
02202222, //6
|
||||
|
||||
10201021,
|
||||
10201021,
|
||||
10201021,
|
||||
11201010,
|
||||
|
||||
10201021,
|
||||
10201021,
|
||||
7,
|
||||
0800, //14
|
||||
|
||||
11201021,
|
||||
01201020,
|
||||
11201021,
|
||||
01201020,
|
||||
|
||||
11201021,
|
||||
01201020,
|
||||
06000000,
|
||||
000000000000000000000008000000000000000000000000, //22
|
||||
|
||||
#GOGOSTART
|
||||
3434,
|
||||
11201122,
|
||||
30330330,
|
||||
01101111,
|
||||
|
||||
1314,
|
||||
11201122,
|
||||
7,
|
||||
080000100000100000000000100000100000100000100000, //30
|
||||
|
||||
10110110,
|
||||
01101111,
|
||||
06000000,
|
||||
000000000000000000000000000000000000000008000000,
|
||||
|
||||
11101011,
|
||||
01101011,
|
||||
11101011,
|
||||
03333333, //38
|
||||
|
||||
000000000000600000000000000000000000000000000008,
|
||||
#GOGOEND
|
||||
0,
|
||||
0, //41
|
||||
#END
|
||||
|
||||
|
||||
COURSE:Normal
|
||||
LEVEL:2
|
||||
BALLOON:12,9,9
|
||||
SCOREINIT:1640,13380
|
||||
SCOREDIFF:1185
|
||||
|
||||
#START
|
||||
#GOGOSTART
|
||||
1011,
|
||||
0111,
|
||||
1011,
|
||||
000000600000000000000000000000000000000000000008,
|
||||
0300,
|
||||
#GOGOEND
|
||||
0022, //6
|
||||
|
||||
11,
|
||||
11,
|
||||
11,
|
||||
22,
|
||||
|
||||
11,
|
||||
11,
|
||||
7,
|
||||
0822, //14
|
||||
|
||||
1011,
|
||||
0111,
|
||||
1011,
|
||||
0111,
|
||||
|
||||
2022,
|
||||
0111,
|
||||
06000000,
|
||||
000000000000000000000008000000000000000000000000, //22
|
||||
|
||||
#GOGOSTART
|
||||
3434,
|
||||
0111,
|
||||
7,
|
||||
080000000000000000000000000000000000000000000000,
|
||||
|
||||
1314,
|
||||
0111,
|
||||
9009,
|
||||
080000000000000000000000000000000000000000000000, //30
|
||||
|
||||
1101,
|
||||
0111,
|
||||
06000000,
|
||||
000000000000000000000000000000000000000008000000,
|
||||
|
||||
1011,
|
||||
0111,
|
||||
1011,
|
||||
000000600000000000000000000000000000000008000000, //38
|
||||
|
||||
0300,
|
||||
#GOGOEND
|
||||
0,
|
||||
0, //41
|
||||
#END
|
||||
|
||||
|
||||
COURSE:Easy
|
||||
LEVEL:1
|
||||
BALLOON:9,7,7
|
||||
SCOREINIT:2060,26830
|
||||
SCOREDIFF:3125
|
||||
|
||||
#START
|
||||
#GOGOSTART
|
||||
11,
|
||||
01,
|
||||
11,
|
||||
000000600000000000000000000000000000000008000000,
|
||||
0300,
|
||||
#GOGOEND
|
||||
0, //6
|
||||
|
||||
1,
|
||||
1,
|
||||
1,
|
||||
1,
|
||||
|
||||
2,
|
||||
2,
|
||||
7,
|
||||
0800, //14
|
||||
|
||||
11,
|
||||
01,
|
||||
11,
|
||||
01,
|
||||
|
||||
22,
|
||||
02,
|
||||
06000000,
|
||||
000000000000000000000008000000000000000000000000, //22
|
||||
|
||||
#GOGOSTART
|
||||
33,
|
||||
0110,
|
||||
7,
|
||||
080000000000000000000000000000000000000000000000,
|
||||
|
||||
0303,
|
||||
0110,
|
||||
9009,
|
||||
080000000000000000000000000000000000000000000000, //30
|
||||
|
||||
1,
|
||||
01,
|
||||
06000000,
|
||||
000000000000000000000000000008000000000000000000,
|
||||
|
||||
11,
|
||||
01,
|
||||
11,
|
||||
000000600000000000000000000000000000000008000000, //38
|
||||
|
||||
0300,
|
||||
#GOGOEND
|
||||
0,
|
||||
0, //41
|
||||
#END
|
||||
Reference in New Issue
Block a user