This commit is contained in:
2026-03-04 23:59:27 +09:00
parent 6e0312f5b4
commit 4b4e2b8c98
1128 changed files with 668765 additions and 0 deletions

544
tja/111.tja Normal file
View File

@@ -0,0 +1,544 @@
//TJADB Project
TITLE:Densetsu no Matsuri
TITLEJA:伝説の祭り
SUBTITLE:--Masako Oogami feat. RUMI
BPM:126
WAVE:Densetsu no Matsuri.ogg
OFFSET:-2.169
DEMOSTART:69.367
COURSE:Oni
LEVEL:7
BALLOON:6
SCOREINIT:380
SCOREDIFF:90
#START
#GOGOSTART
#SCROLL 1.08
1111,
#SCROLL 1
#BPMCHANGE 136
5,
#MEASURE 2/4
00000008000000000000000010001000,
#MEASURE 4/4
#GOGOEND
1,
,
12121212,
12021212,
1020002010222020,
12021212,
1020002010222011,
1,
#MEASURE 2/4
00202211,
#MEASURE 4/4
1001101010222010,
1001101010222010,
1001101010001112,
2002101020001112,
2002101020021010,
1001202010012020,
1120112011201120,
1101201020222010,
1101201030303022,
1101201020222010,
1101201010212022,
1101201020222010,
1101201030303022,
1101201020222010,
1111202011112020,
3333,
6000000000000000000000000000000000000000000000080000000000000000,
4,
,
0011101010012020,
1011101010002000,
0011101010012020,
1011101010202020,
0011101010012020,
1011101010002020,
2011102011102011,
1020111022121020,
#GOGOSTART
3011101010111010,
1011101011111010,
1011101011011010,
1110111011103030,
1011101011011010,
1011101011111010,
3030303030303011,
#GOGOEND
1001101000222010,
1022101000222010,
2102101000222000,
1011101110111010,
1022102200222010,
1022122000222010,
1122112200222000,
7000000008000011,
1,
#MEASURE 2/4
00202211,
#MEASURE 4/4
1001101010222010,
1001101010222010,
1001101010221112,
2002101020221112,
2002101020021010,
1001202210012022,
1120112011201120,
1101201020222010,
1101201030303022,
1101201020222010,
1101201010212022,
1101201020222010,
1101201030303022,
1101201020222010,
1111222211221020,
3333,
6000000000000000000000000000000800000000000000003000000020002000,
2,
,
0011101010012020,
1011101010002000,
0011101010012020,
1011101010202020,
0011101010012020,
1011101010002020,
2011201011202011,
2010112022121020,
#GOGOSTART
3011201011221020,
1011201012221020,
1011201012021020,
1120112011203040,
1011201012021020,
1011201012221010,
3030303030303011,
1020112011201220,
3011201012021020,
1011201012221010,
#MEASURE 2/4
3333,
#MEASURE 4/4
3003004030030040,
#MEASURE 2/4
11111011,
#MEASURE 4/4
#GOGOEND
1,
#END
COURSE:Hard
LEVEL:6
BALLOON:12,6,12
SCOREINIT:450
SCOREDIFF:110
#START
#SCROLL 1.09
#GOGOSTART
1111,
#SCROLL 1
#BPMCHANGE 136
5,
#MEASURE 2/4
0000000000000008000000000000000000000000000000001000000010000000,//3
#MEASURE 4/4
#GOGOEND
1,
,
12121212,
12021202,
12021212,
12021202,
1020002010201011,
1,
#MEASURE 2/4
0220,
#MEASURE 4/4
1001101010002000,
1001101010002000,
1001101010001011,
1000202020001011,
10222011,
10011011,
1,
1011100020222000,
1011100030303000,
1011100020222000,
1011100030004000,
1011100020222000,
1011100030303000,
1011100020222000,
1011101110003030,
3333,
6000000000000000000000000000000000000000000000080000000000000000,
4,
,
11001122,
11001122,
11001122,
30303022,
11001122,
11001122,
7,
0000800011111000,//39
#GOGOSTART
12021202,
12021212,
12021202,
12121012,
12021202,
12121212,
1010101010101011,//46
#GOGOEND
1000101000111000,
0000101000222000,
0000101000111000,
1011101110111010,
2000200000222000,
2000200000111000,
2000200000222000,
7000000080000011,
1,
#MEASURE 2/4
0220,
#MEASURE 4/4
1001101010002000,
1001101010002000,
1001101010001011,
1000202020001011,
10222011,
10011011,
1,
1011100020222000,
1011100030303000,
1011100020222000,
1011100030004000,
1011100020222000,
1011100030303000,
1011100020222000,
1011101110003030,
3333,
6000000000000000000000000000000000000000000000080000000000000000,
4,
,
11001122,
11001122,
11001122,
30303022,
11001122,
11001122,
7,
0000800011111000,//83
#GOGOSTART
12021202,
12021212,
12021202,
12121012,
12021202,
12121212,
1010101010101011,
1,
12021202,
12121212,
#MEASURE 2/4
1111,
#MEASURE 4/4
3003004030030040,
#MEASURE 2/4
30303011,//96
#MEASURE 4/4
#GOGOEND
1,
,
,
#END
COURSE:Normal
LEVEL:4
BALLOON:6,6,12,6,12
SCOREINIT:550
SCOREDIFF:145
#START
#SCROLL 1.09
#GOGOSTART
1111,
#SCROLL 1
#BPMCHANGE 136
5000000000000000000000000000000000000000000000000000000000000008,
#MEASURE 2/4
,//3
#MEASURE 4/4
#GOGOEND
3,
,
11101110,
5000000000000000000000000000000000000000000000080000000000000000,
7008,
5000000000000000000000000000000000000000000000080000000000000000,
7008,
3,
#MEASURE 2/4
,
#MEASURE 4/4
1110,
11,
1110,
12,
12,
1033,
3,
00002220,
00001110,
00002220,
0033,
00002220,
00001110,
00002220,
1110,
3333,
6000000000000000000000000000000000000008000000000000000000000000,
3,
,
11001100,
2220,
11001100,
1110,
11001100,
1111,
7,
0800,//39
#GOGOSTART
11101110,
3333,
11101110,
4440,
11101110,
3344,
6000000000000000000000000000000000000008000000000000000000000000,//46
#GOGOEND
30000110,
00000110,
00000110,
11111112,
00000220,
00000220,
00000220,
78,
3,
#MEASURE 2/4
,
#MEASURE 4/4
1110,
11,
1110,
12,
12,
1033,
3,
30002220,
30001110,
30002220,
3033,
30002220,
30001110,
30002220,
3330,
3333,
6000000000000000000000000000000000000008000000000000000000000000,
3,
,
11001100,
2220,
11001100,
1110,
11001100,
1111,
7,
0800,//83
#GOGOSTART
11101110,
3333,
11101110,
4440,
11101110,
3344,
6000000000000000000000000000000000000008000000000000000000000000,
3,
11101110,
3334,
#MEASURE 2/4
33,
#MEASURE 4/4
6,
#MEASURE 2/4
00000008000000000000000000000000,//96
#MEASURE 4/4
#GOGOEND
3,
,
,
#END
COURSE:Easy
LEVEL:3
BALLOON:8,4,8
SCOREINIT:450
SCOREDIFF:128
#START
#GOGOSTART
#SCROLL 1.09
1111,
#BPMCHANGE 136
#SCROLL 1
5000000000000000000000000000000000000000000000000000000000000008,
#MEASURE 2/4
,//3
#MEASURE 4/4
#GOGOEND
3,
,
11,
5000000000000000000000000000000800000000000000000000000000000000,
5000000000000000000000000000000800000000000000000000000000000000,
5000000000000000000000000000000800000000000000000000000000000000,
5000000000000000000000000000000800000000000000000000000000000000,
3,
#MEASURE 2/4
,
#MEASURE 4/4
1110,
11,
1110,
12,
12,
11,
3,
0022,
0011,
0022,
0033,
0022,
0011,
0022,
5000000000000000000000000000000800000000000000000000000000000000,
3333,
6000000000000000000000000000000800000000000000000000000000000000,
3,
,
22,
2220,
11,
1110,
22,
2220,
7,
0800,//39
#GOGOSTART
3330,
33,
3330,
4440,
3330,
3333,
6000000000000000000000000000000000000008000000000000000000000000,//46
#GOGOEND
3003,
0003,
0003,
6000000000000000000000000000000000000000000000080000000000000000,
0004,
0004,
0004,
78,
3,
#MEASURE 2/4
,
#MEASURE 4/4
1110,
11,
1110,
12,
12,
11,
3,
0022,
0011,
0022,
0033,
0022,
0011,
0022,
5000000000000000000000000000000800000000000000000000000000000000,
3333,
6000000000000000000000000000000800000000000000000000000000000000,
3,
,
22,
2220,
11,
1110,
22,
2220,
7,
0800,//83
#GOGOSTART
3330,
33,
3330,
4440,
3330,
3333,
6000000000000000000000000000000000000008000000000000000000000000,
3,
3330,
3334,
#MEASURE 2/4
33,
#MEASURE 4/4
6,
#MEASURE 2/4
00000008000000000000000000000000,//96
#MEASURE 4/4
#GOGOEND
3,
,
,
#END