tja
This commit is contained in:
240
tja/1110.tja
Normal file
240
tja/1110.tja
Normal file
@@ -0,0 +1,240 @@
|
||||
//TJADB Project
|
||||
TITLE:Kyou wa Taiko-youbi
|
||||
TITLEJA:きょうはたいこ曜日
|
||||
SUBTITLE:--Yuri Misumi
|
||||
SUBTITLEJA:太鼓の達人オリジナル曲
|
||||
BPM:118
|
||||
WAVE:Kyou wa Taiko-youbi.ogg
|
||||
OFFSET:-2.453
|
||||
DEMOSTART:46.912
|
||||
|
||||
COURSE:Oni
|
||||
LEVEL:5
|
||||
BALLOON:8
|
||||
SCOREINIT:1110
|
||||
SCOREDIFF:345
|
||||
|
||||
|
||||
#START
|
||||
|
||||
|
||||
000000000000000000000000000000000000000000000000,
|
||||
000000000000000000000000000000000000000000000000,
|
||||
000000000000000000000000000000000000000000000000,
|
||||
100000200200100000100000000000200000200000000000,
|
||||
100000200200100000100000000000200000200000000000,
|
||||
100100000100100100000100100000200000200000200000,
|
||||
100000100000100100000100000000200200200000200000,
|
||||
100100000100100000100000100000200000200000200000,
|
||||
100000100000100100000100000000000000200000200000,
|
||||
100100000100100100000100100000200000200000200000,
|
||||
100000100000100100000100000000200200200000200000,
|
||||
100100000100100000100000100000200000200000200000,
|
||||
100100100100100000100000100000000000200000200000,
|
||||
500000000000000000000000000008000000200000200000,
|
||||
500000000000000000000000000008000000000000000000,
|
||||
100000200000100000200000100000200000100000200000,
|
||||
300000000000300000000000300000000000200000200000,
|
||||
500000000000000000000000000008000000200000200000,
|
||||
500000000000000000000000000008000000000000000000,
|
||||
100000200000100000200000100000200000100000200000,
|
||||
300000000000300000000000300000000000000000000000,
|
||||
700000000000000000000000800000200000200000000000,
|
||||
|
||||
#GOGOSTART
|
||||
600000000000000000000000000000000008000000000000,
|
||||
100000200200100000200200100000200200100000000000,
|
||||
100000100000100000000000200000200000200000000000,
|
||||
100100100100100000100000000000200000200000000000,
|
||||
600000000000000000000000000000000008000000000000,
|
||||
100000200200100000200200100000200200100000000000,
|
||||
100000100000100000000000200000200000200000000000,
|
||||
100000000100100000200000200000000000100000200000,
|
||||
300000000000000000000000000000000000000000000000,
|
||||
|
||||
#GOGOEND
|
||||
100000000100100000100000000000200000200000000000,
|
||||
100000000100100000100000200000100000100000200000,
|
||||
100100000100100100000100100000100000100000100000,
|
||||
100100000100100100000100100100000100100100000100,
|
||||
100000000000100000100000000000200000200000200000,
|
||||
100000000100100000100000200000100000100000200000,
|
||||
100100000100100100000100100000200000200000200000,
|
||||
100000000100100000100000100000000000200000200000,
|
||||
100000200000100000200000000000100000100000000000,
|
||||
100100000200200000100000000000200000200000000000,
|
||||
100100000200200000100000000000000000300000000000,
|
||||
300000000000000000000000000000000000000000000000,
|
||||
|
||||
|
||||
#END
|
||||
|
||||
|
||||
COURSE:Hard
|
||||
LEVEL:5
|
||||
BALLOON:6
|
||||
SCOREINIT:1210
|
||||
SCOREDIFF:438
|
||||
|
||||
|
||||
#START
|
||||
|
||||
|
||||
000000000000000000000000000000000000000000000000,
|
||||
000000000000000000000000000000000000000000000000,
|
||||
100000100000000000100000000000200000200000000000,
|
||||
100000100000000000100000000000200000200000000000,
|
||||
100000000000100000000000100000000000200000000000,
|
||||
100000100000000000100000100000000000000000000000,
|
||||
100000000000100000000000100000000000200000000000,
|
||||
100000100000000000100000100000000000000000000000,
|
||||
100000000000100000000000100000000000200000000000,
|
||||
100000100000000000100000100000000000000000000000,
|
||||
100000000000100000000000100000000000200000000000,
|
||||
100000100000000000100000100000000000200000200000,
|
||||
500000000000000000000000800000000000200000200000,
|
||||
500000000000000000000000800000000000200000200000,
|
||||
200000000000100000100000000000100000100000000000,
|
||||
300000000000300000000000300000000000200000200000,
|
||||
500000000000000000000000800000000000200000200000,
|
||||
500000000000000000000000800000000000200000200000,
|
||||
200000000000100000100000000000100000100000000000,
|
||||
300000000000300000000000300000000000000000000000,
|
||||
700000000000000000800000000000200000200000000000,
|
||||
600000000000000000000000000000000800000000000000,
|
||||
100000100100100000100100100000100100100000000000,
|
||||
100000100000000000000000100000100000000000000000,
|
||||
100000100000100000100000000000200000200000000000,
|
||||
600000000000000000000000000000000800000000000000,
|
||||
100000100100100000100100100000100100100000000000,
|
||||
100000100000000000000000100000000000200000000000,
|
||||
100000000000000000000000000000000000100000000000,
|
||||
300000000000000000000000000000000000000000000000,
|
||||
100000000100100000100000000000200000200000000000,
|
||||
100000000100100000100000100000000000200000200000,
|
||||
100100000100100100000100100000200000200000200000,
|
||||
100100000100100100000100100100000100100100000000,
|
||||
100000100000100000100000000000200000200000200000,
|
||||
100000000100100000100000100000000000200000200000,
|
||||
100100000100100100000100100000200000200000200000,
|
||||
100000000100100000100000100000000000200000200000,
|
||||
000000100000000000100000000000200000200000000000,
|
||||
100000000100100000100000000000200000200000000000,
|
||||
100000000100100000100000000000000000100000000000,
|
||||
300000000000000000000000000000000000000000000000,
|
||||
|
||||
|
||||
#END
|
||||
|
||||
|
||||
COURSE:Normal
|
||||
LEVEL:4
|
||||
SCOREINIT:1200
|
||||
SCOREDIFF:570
|
||||
|
||||
|
||||
#START
|
||||
|
||||
|
||||
000000000000000000000000000000000000000000000000,
|
||||
000000000000000000000000000000000000000000000000,
|
||||
100000100000000000100000000000200000200000000000,
|
||||
100000100000000000100000000000200000200000000000,
|
||||
100000000000100000000000100000000000000000000000,
|
||||
100000100000100000000000100000000000000000000000,
|
||||
100000000000100000000000100000000000000000000000,
|
||||
100000100000100000000000100000000000000000000000,
|
||||
100000000000100000000000100000000000000000000000,
|
||||
100000100000100000000000100000000000000000000000,
|
||||
100000000000100000000000100000000000000000000000,
|
||||
100000100000100000000000100000000000000000000000,
|
||||
100000100000000000100000100000000000100000000000,
|
||||
100000100000000000100000100000000000000000000000,
|
||||
100000000000000000000000100000000000000000000000,
|
||||
300000000000300000000000300000000000000000000000,
|
||||
100000100000000000100000100000000000100000000000,
|
||||
100000100000000000100000100000000000000000000000,
|
||||
100000000000000000000000100000000000000000000000,
|
||||
300000000000300000000000300000000000000000000000,
|
||||
000000000000000000000000000000200000200000000000,
|
||||
600000000000000000000000000000800000000000000000,
|
||||
300000000000300000000000300000000000300000000000,
|
||||
100000000000000000000000100000000000000000000000,
|
||||
100000000000100000100000000000200000200000000000,
|
||||
600000000000000000000000000000800000000000000000,
|
||||
300000000000300000000000300000000000300000000000,
|
||||
100000000000000000000000100000000000200000000000,
|
||||
100000000000000000000000000000000000100000000000,
|
||||
300000000000000000000000000000000000000000000000,
|
||||
100000000000100000100000000000200000200000000000,
|
||||
100000000000200000000000100000000000200000000000,
|
||||
100000000000100000000000100000000000000000000000,
|
||||
100000000000100000000000100000000000100000000000,
|
||||
100000000000100000100000000000000000000000000000,
|
||||
100000000000200000000000100000000000200000000000,
|
||||
100000000000100000000000100000000000000000000000,
|
||||
100000000000100000100000100000000000000000000000,
|
||||
000000100000000000100000000000100000100000000000,
|
||||
300000000000000000000000000000200000200000000000,
|
||||
300000000000000000000000000000000000100000000000,
|
||||
300000000000000000000000000000000000000000000000,
|
||||
|
||||
|
||||
#END
|
||||
|
||||
|
||||
COURSE:Easy
|
||||
LEVEL:2
|
||||
SCOREINIT:1100
|
||||
SCOREDIFF:840
|
||||
|
||||
|
||||
#START
|
||||
|
||||
|
||||
000000000000000000000000000000000000000000000000,
|
||||
000000000000000000000000000000000000000000000000,
|
||||
100000000000000000000000000000000000000000000000,
|
||||
100000000000000000000000000000000000000000000000,
|
||||
100000000000100000000000100000000000000000000000,
|
||||
100000000000000000000000000000000000000000000000,
|
||||
100000000000100000000000100000000000000000000000,
|
||||
100000000000000000000000000000000000000000000000,
|
||||
100000000000100000000000100000000000000000000000,
|
||||
100000000000000000000000000000000000000000000000,
|
||||
100000000000100000000000100000000000000000000000,
|
||||
100000000000000000000000000000000000200000000000,
|
||||
100000000000000000000000000000000000200000000000,
|
||||
100000000000000000000000100000000000100000000000,
|
||||
100000000000000000000000100000000000000000000000,
|
||||
100000000000100000000000100000000000000000000000,
|
||||
100000000000000000000000000000000000200000000000,
|
||||
100000000000000000000000100000000000100000000000,
|
||||
100000000000000000000000100000000000000000000000,
|
||||
100000000000100000000000100000000000000000000000,
|
||||
000000000000000000000000200000000000200000000000,
|
||||
600000000000000000000000800000000000000000000000,
|
||||
300000000000300000000000300000000000300000000000,
|
||||
100000000000000000000000100000000000000000000000,
|
||||
100000000000000000000000200000000000200000000000,
|
||||
600000000000000000000000800000000000000000000000,
|
||||
300000000000300000000000300000000000300000000000,
|
||||
100000000000000000000000100000000000000000000000,
|
||||
100000000000000000000000000000000000100000000000,
|
||||
300000000000000000000000000000000000000000000000,
|
||||
100000000000000000000000000000000000000000000000,
|
||||
100000000000000000000000000000000000000000000000,
|
||||
100000000000100000000000100000000000000000000000,
|
||||
100000000000000000000000100000000000000000000000,
|
||||
100000000000000000000000000000000000000000000000,
|
||||
100000000000000000000000000000000000000000000000,
|
||||
100000000000100000000000100000000000000000000000,
|
||||
100000000000000000000000100000000000000000000000,
|
||||
100000000000000000000000000000000000100000000000,
|
||||
300000000000000000000000000000000000000000000000,
|
||||
300000000000000000000000000000000000100000000000,
|
||||
300000000000000000000000000000000000000000000000,
|
||||
|
||||
|
||||
#END
|
||||
|
||||
Reference in New Issue
Block a user