tja
This commit is contained in:
366
tja/1111.tja
Normal file
366
tja/1111.tja
Normal file
@@ -0,0 +1,366 @@
|
||||
//TJADB Project
|
||||
TITLE:Kaibutsu
|
||||
TITLEJA:怪物
|
||||
SUBTITLE:--YOASOBI/BEASTARS
|
||||
SUBTITLEJA:YOASOBI「怪物 / 優しい彗星」より
|
||||
BPM:170
|
||||
WAVE:Kaibutsu.ogg
|
||||
OFFSET:-1.646
|
||||
DEMOSTART:35.154
|
||||
|
||||
//Shinuchi: 9650/4870/2990/2040
|
||||
|
||||
COURSE:Oni
|
||||
LEVEL:7
|
||||
BALLOON:2
|
||||
SCOREINIT:630,2150
|
||||
SCOREDIFF:170
|
||||
|
||||
#START
|
||||
11211122,
|
||||
10120201,
|
||||
02121112,
|
||||
1110001000221020,
|
||||
|
||||
11211122,
|
||||
11120212,
|
||||
0020100010221020,
|
||||
12220201, //8
|
||||
|
||||
1020102011102020,
|
||||
10120201,
|
||||
0020102210111010,
|
||||
2210002000221020,
|
||||
|
||||
1020102011102010,
|
||||
02110201,
|
||||
0020102000222010,
|
||||
1212, //16
|
||||
|
||||
1000201110200020,
|
||||
2220202000202020,
|
||||
1000201110200022,
|
||||
22220222,
|
||||
|
||||
1000200011101020,
|
||||
0010112000221020,
|
||||
1110201110102210,
|
||||
000000100100100000100000200000000000700000080000, //24
|
||||
|
||||
#GOGOSTART
|
||||
1120002210001120,
|
||||
0022102010222010,
|
||||
1220002110001220,
|
||||
0021102010202020,
|
||||
|
||||
1110100022202000,
|
||||
1110222011102220,
|
||||
1022102210111020,
|
||||
02120220, //32
|
||||
|
||||
3000001110200011,
|
||||
11210333,
|
||||
03330444,
|
||||
0020200022202020,
|
||||
1110222011202210,
|
||||
1110222011202000, //38
|
||||
#GOGOEND
|
||||
|
||||
1000100020001022,
|
||||
1122,
|
||||
1000200010002022,
|
||||
1211,
|
||||
|
||||
1110200011102000,
|
||||
1000200011102000,
|
||||
1110222011102220,
|
||||
1120102212201020, //46
|
||||
|
||||
#GOGOSTART
|
||||
1120001110200011,
|
||||
11220343,
|
||||
03430343,
|
||||
0030400022202020,
|
||||
1110222011202210,
|
||||
1110111122202000, //52
|
||||
#GOGOEND
|
||||
|
||||
1001001012101020,
|
||||
1001001021202020,
|
||||
1001001012101020,
|
||||
1001001022202220,
|
||||
|
||||
1001001012101020,
|
||||
1001001021202020,
|
||||
1002002010202020,
|
||||
2002002010202020,
|
||||
3,
|
||||
0, //62
|
||||
#END
|
||||
|
||||
|
||||
COURSE:Hard
|
||||
LEVEL:6
|
||||
BALLOON:2,24
|
||||
SCOREINIT:740,3250
|
||||
SCOREDIFF:213
|
||||
|
||||
#START
|
||||
10101212,
|
||||
10120201,
|
||||
01101212,
|
||||
11010110,
|
||||
|
||||
10101212,
|
||||
10120201,
|
||||
01101110,
|
||||
10220201, //8
|
||||
|
||||
10101122,
|
||||
10120201,
|
||||
02101110,
|
||||
21020222,
|
||||
|
||||
10101121,
|
||||
02110201,
|
||||
02000001,
|
||||
1212, //16
|
||||
|
||||
10211202,
|
||||
20220220,
|
||||
10201202,
|
||||
20220220,
|
||||
|
||||
10201102,
|
||||
01120112,
|
||||
10102202,
|
||||
000000100100100000100000200000000000700000080000, //24
|
||||
|
||||
#GOGOSTART
|
||||
1110001110001110,
|
||||
02121020,
|
||||
1110001110001110,
|
||||
01112220,
|
||||
|
||||
1122,
|
||||
1212,
|
||||
12121011,
|
||||
01110220, //32
|
||||
|
||||
30011101,
|
||||
11210333,
|
||||
03330444,
|
||||
02202220,
|
||||
1122,
|
||||
1212, //38
|
||||
#GOGOEND
|
||||
|
||||
9,
|
||||
000000000000000000000009000000000000000000000008,
|
||||
0,
|
||||
2122,
|
||||
|
||||
10201120,
|
||||
10201120,
|
||||
11102220,
|
||||
10120220, //46
|
||||
|
||||
#GOGOSTART
|
||||
11011101,
|
||||
11220343,
|
||||
03430343,
|
||||
03402220,
|
||||
1122,
|
||||
11102120, //52
|
||||
#GOGOEND
|
||||
|
||||
1001000010101000,
|
||||
1001000020202000,
|
||||
1001000010101000,
|
||||
1001000022202020,
|
||||
|
||||
1001000010101000,
|
||||
1001000020202000,
|
||||
10001222,
|
||||
20021222,
|
||||
3,
|
||||
0, //62
|
||||
#END
|
||||
|
||||
|
||||
COURSE:Normal
|
||||
LEVEL:5
|
||||
BALLOON:14,7,18,7
|
||||
SCOREINIT:930,5080
|
||||
SCOREDIFF:305
|
||||
|
||||
#START
|
||||
1011,
|
||||
10010101,
|
||||
01101010,
|
||||
10010110,
|
||||
|
||||
1011,
|
||||
10010101,
|
||||
01000000,
|
||||
20220200, //8
|
||||
|
||||
10001110,
|
||||
10010101,
|
||||
01101010,
|
||||
10010110,
|
||||
|
||||
10001011,
|
||||
01010201,
|
||||
01000000,
|
||||
2222, //16
|
||||
|
||||
10110010,
|
||||
20220000,
|
||||
10110010,
|
||||
20220020,
|
||||
|
||||
10201101,
|
||||
01110110,
|
||||
7,
|
||||
08, //24
|
||||
|
||||
#GOGOSTART
|
||||
11011011,
|
||||
01102020,
|
||||
11011011,
|
||||
01111020,
|
||||
|
||||
1122,
|
||||
1121,
|
||||
10102011,
|
||||
01110220, //32
|
||||
|
||||
30011101,
|
||||
100000000000100000100000000000600000000008000000,
|
||||
000000600000000008000000000000700000000000000000,
|
||||
0820,
|
||||
1122,
|
||||
1111, //38
|
||||
#GOGOEND
|
||||
|
||||
9,
|
||||
000000000000000000000009000000000000000000000008,
|
||||
0,
|
||||
22,
|
||||
|
||||
1211,
|
||||
1212,
|
||||
1122,
|
||||
10020000, //46
|
||||
|
||||
#GOGOSTART
|
||||
11011101,
|
||||
100000000000100000100000000000600000000008000000,
|
||||
000000600000000008000000000000700000000000000000,
|
||||
0820,
|
||||
1122,
|
||||
1122, //52
|
||||
#GOGOEND
|
||||
|
||||
11,
|
||||
10002220,
|
||||
11,
|
||||
10002222,
|
||||
|
||||
11,
|
||||
10002220,
|
||||
11,
|
||||
2012,
|
||||
3,
|
||||
0, //62
|
||||
#END
|
||||
|
||||
|
||||
COURSE:Easy
|
||||
LEVEL:3
|
||||
BALLOON:11,5,14,5
|
||||
SCOREINIT:1050,10150
|
||||
SCOREDIFF:643
|
||||
|
||||
#START
|
||||
1,
|
||||
1,
|
||||
1,
|
||||
12,
|
||||
|
||||
1,
|
||||
1,
|
||||
1,
|
||||
2, //8
|
||||
|
||||
11,
|
||||
1,
|
||||
11,
|
||||
12,
|
||||
|
||||
11,
|
||||
11,
|
||||
1,
|
||||
500000000000000000000008000000000000000000000000, //16
|
||||
|
||||
11,
|
||||
2200,
|
||||
11,
|
||||
2200,
|
||||
|
||||
1110,
|
||||
1102,
|
||||
7,
|
||||
08, //24
|
||||
|
||||
#GOGOSTART
|
||||
11,
|
||||
1110,
|
||||
11,
|
||||
2220,
|
||||
|
||||
1110,
|
||||
1112,
|
||||
1115,
|
||||
000000000000000000000000000008000000000000000000, //32
|
||||
|
||||
31,
|
||||
100000000000100000000000000000600000000008000000,
|
||||
000000600000000008000000000000700000000000000000,
|
||||
0800,
|
||||
1110,
|
||||
1110, //38
|
||||
#GOGOEND
|
||||
|
||||
9,
|
||||
000000000000000000000009000000000000000000000008,
|
||||
0,
|
||||
2,
|
||||
|
||||
11,
|
||||
11,
|
||||
22,
|
||||
2, //46
|
||||
|
||||
#GOGOSTART
|
||||
11,
|
||||
100000000000100000000000000000600000000008000000,
|
||||
000000600000000008000000000000700000000000000000,
|
||||
0800,
|
||||
1110,
|
||||
1110, //52
|
||||
#GOGOEND
|
||||
|
||||
1,
|
||||
12,
|
||||
1,
|
||||
1022,
|
||||
|
||||
1,
|
||||
12,
|
||||
1,
|
||||
2022,
|
||||
3,
|
||||
0, //62
|
||||
#END
|
||||
Reference in New Issue
Block a user