This commit is contained in:
2026-03-04 23:59:27 +09:00
parent 6e0312f5b4
commit 4b4e2b8c98
1128 changed files with 668765 additions and 0 deletions

372
tja/1117.tja Normal file
View File

@@ -0,0 +1,372 @@
//TJADB Project
TITLE:1・2・3
SUBTITLE:--After the Rain/Pokémon Journeys The Series
BPM:182
WAVE:1 2 3.ogg
OFFSET:-0.108
DEMOSTART:37.992
COURSE:Oni
LEVEL:7
BALLOON:9,16,14
SCOREINIT:620
SCOREDIFF:168
#START
#MEASURE 1/16
#GOGOSTART
#SCROLL 0.5
,
#MEASURE 7/16
,
#MEASURE 4/4
#SCROLL 1
11210121,
01220121,
0020201010111010,
03303304,
0040004040000011,
#GOGOEND
12121202,
0020102000202011,
12121202,
0020102000222020,
0011101000222020,
0011101000222020,
0020102010111070,
00008111,
0011101010200022,
2020202000202011,
11221102,
0022202000111010,
0020102010100011,
1020102010111070,
00000008,
00011020,
#MEASURE 3/4
100200111,
100100111,
121,
#MEASURE 4/4
500000000000000000000000000008000000000000000000,
1000101110001011,
1000101110201020,
1010111011101010,
033340
#GOGOSTART
00,
3000300011102010,
0011101000202000,
3000300011102010,
0011101000202011,
1000200011102010,
0010200011102010,
0020102011102010,
0020102011101000,
2000112000200020,
2011100020111020,
2000112000200020,
2011100011102000,
1000112000201020,
1020102010112000,
1110400011104000,
1010104000201110,
3000102011102010,
0011101000202000,
3000302011102010,
0011101000303030,
0000200011102010,
0010200011102060,
000000000000000000000008000000000000200000100000,
0020111110201020,
0010112000201020,
0010112000201020,
0010112000201011,
1000200011102010,
0020102010001120,
0020102010001120,
1020102011201020,
1110112000003000,
4000102011102020,
1110201000003000,
4000102011102020,
1110201000001020,
70000008,
34000000,
#GOGOEND
#END
COURSE:Hard
LEVEL:5
BALLOON:32,8,14,24,9
SCOREINIT:800
SCOREDIFF:225
#START
#MEASURE 1/16
#GOGOSTART
#SCROLL 0.5
0,
#MEASURE 7/16
0
#SCROLL 1
000000,
#MEASURE 4/4
9,
,
000000000000000000000000000000000000000000000008,
,
,
#GOGOEND
10101001,
01110000,
10101001,
01110222,
01110222,
01110222,
01101117,
08,
10111002,
02220000,
10111002,
02220222,
01111101,
01101117,
00000080,
00011010,
#MEASURE 3/4
102,
122,
101,
#MEASURE 4/4
1,
10011020,
1212,
100000000100500000008000,
011130
#GOGOSTART
00,
30303011,
01110220,
30303011,
02220111,
10000101,
00101011,
01100022,
02202000,
10210101,
01200111,
10210101,
01200010,
10110000,
1111,
1414,
11140000,
30011011,
01110220,
30301011,
02220333,
00200900,
,
00000800,
00000111,
01120111,
01120111,
01110112,
00202011,
01112011,
01112011,
01112012,
01120030,
40011110,
22220030,
40011110,
22220012,
7008,
34000000,
#GOGOEND
#END
COURSE:Normal
LEVEL:4
BALLOON:20,4,7,4,4,4,4,4,15,4,0
SCOREINIT:1190
SCOREDIFF:475
#START
#MEASURE 1/16
#GOGOSTART
#SCROLL 0.5
0,
#MEASURE 7/16
0
#SCROLL 1
000000,
#MEASURE 4/4
9,
,
000000000000000000000000000000000000000000000008,
,
,
#GOGOEND
10001001,
,
10001001,
,
1,
1,
10001007,
08,
10101001,
,
10101001,
,
10101001,
00101007,
00000080,
,
#MEASURE 3/4
2,
2,
202,
#MEASURE 4/4
2,
11,
1111,
500008,
000
#GOGOSTART
0,
30303007,
08,
30303007,
08,
1,
10101017,
00008000,
,
20220002,
02200000,
20220002,
02200000,
10110000,
1111,
11,
11020000,
30002027,
08,
30002027,
08,
30000900,
,
00000008,
,
10110000,
10110000,
10110100,
10000022,
00202022,
00202022,
00101011,
0003,
3011,
11020030,
3011,
11020010,
7008,
33000000,
#GOGOEND
#END
COURSE:Easy
LEVEL:2
BALLOON:16,9,6,3,3,3,11,4,0
SCOREINIT:1390
SCOREDIFF:1260
#START
#MEASURE 1/16
#GOGOSTART
#SCROLL 0.5
0,
#MEASURE 7/16
0
#SCROLL 1
000000,
#MEASURE 4/4
9,
,
000000000000000000000000000000000000000000000008,
,
,
#GOGOEND
1,
,
1,
,
1,
10000007,
,
00080000,
1,
,
1,
,
1,
10000007,
00000080,
,
#MEASURE 3/4
2,
2,
5,
#MEASURE 4/4
000000080000,
1,
11,
500008,
000
#GOGOSTART
0,
3330,
,
3330,
,
1,
10000007,
00008000,
,
22,
2,
22,
2,
1,
1,
11,
2,
30000007,
08,
30000007,
08,
30000900,
,
00000800,
,
1,
1,
11,
1,
2,
2,
11,
1003,
3,
2003,
3,
2,
7008,
3,
#GOGOEND
#END