tja
This commit is contained in:
494
tja/1119.tja
Normal file
494
tja/1119.tja
Normal file
@@ -0,0 +1,494 @@
|
||||
//TJADB Project
|
||||
TITLE:GOING TO LUNATEA
|
||||
TITLEJA:GOING TO LUNATEA
|
||||
SUBTITLE:--Klonoa 2: Lunatea's Veil
|
||||
SUBTITLEJA:「風のクロノア2 ~世界が望んだ忘れもの~」より
|
||||
BPM:248
|
||||
WAVE:GOING TO LUNATEA.ogg
|
||||
OFFSET:-1.808
|
||||
DEMOSTART:3.263
|
||||
|
||||
//shinuchi: 10010/5070/2820/1680
|
||||
|
||||
COURSE:Oni
|
||||
LEVEL:8
|
||||
BALLOON:28,28,28
|
||||
SCOREINIT:550,1750
|
||||
SCOREDIFF:135
|
||||
|
||||
#START
|
||||
#MEASURE 6/4
|
||||
#SCROLL 0.66
|
||||
0,
|
||||
#GOGOSTART
|
||||
300120112120,
|
||||
121120121120,
|
||||
100122111220,
|
||||
500000000000000000000000000000000008000000000000200000200000200000000000,
|
||||
|
||||
100122112210,
|
||||
101020202211,
|
||||
100121211120,
|
||||
101220102020, //9
|
||||
|
||||
300120112120,
|
||||
121120121120,
|
||||
100122111220,
|
||||
500000000000000000000000000000000008000000000000200000200000200000000000,
|
||||
|
||||
102122112020,
|
||||
101221102020,
|
||||
7,
|
||||
000082, //17
|
||||
|
||||
300120112120,
|
||||
121120121120,
|
||||
100122111220,
|
||||
500000000000000000000000000000000008000000000000200000200000200000000000,
|
||||
|
||||
100122112210,
|
||||
101020202211,
|
||||
100121211120,
|
||||
101220102020, //25
|
||||
|
||||
300120112120,
|
||||
121120121120,
|
||||
100122111220,
|
||||
500000000000000000000000000000000008000000000000200000200000200000000000,
|
||||
|
||||
102122112020,
|
||||
101221102020,
|
||||
7,
|
||||
008, //33
|
||||
#GOGOEND
|
||||
|
||||
112120112120,
|
||||
100120101020,
|
||||
112120112120,
|
||||
100120101010,
|
||||
|
||||
112210112210,
|
||||
100120101020,
|
||||
101120101120,
|
||||
100120102020, //41
|
||||
|
||||
100110102211,
|
||||
102210102220,
|
||||
100110102210,
|
||||
102220102220,
|
||||
|
||||
100211102210,
|
||||
102210102211,
|
||||
5,
|
||||
000000000000000000000000000000000000000000000000000000000008000000000000, //49
|
||||
|
||||
201010102211,
|
||||
100110102220,
|
||||
201010102211,
|
||||
100112102210,
|
||||
|
||||
100110102020,
|
||||
100110102220,
|
||||
211211,
|
||||
201010202210, //57
|
||||
|
||||
100121202020,
|
||||
101121202020,
|
||||
101121202020,
|
||||
202211201010,
|
||||
|
||||
100121102020,
|
||||
101121202020,
|
||||
101121102020,
|
||||
101121112120, //65
|
||||
|
||||
#GOGOSTART
|
||||
300120112120,
|
||||
121120121120,
|
||||
100122111220,
|
||||
500000000000000000000000000000000008000000000000200000200000200000000000,
|
||||
|
||||
100122112210,
|
||||
101020202211,
|
||||
100121211120,
|
||||
101220102020, //73
|
||||
|
||||
300120112120,
|
||||
121120121120,
|
||||
100122111220,
|
||||
500000000000000000000000000000000008000000000000200000200000200000000000,
|
||||
|
||||
102122112020,
|
||||
101221102020,
|
||||
7,
|
||||
008, //81
|
||||
#GOGOEND
|
||||
|
||||
0,
|
||||
0,
|
||||
0,
|
||||
0, //85
|
||||
#END
|
||||
|
||||
|
||||
COURSE:Hard
|
||||
LEVEL:6
|
||||
BALLOON:20,17,20
|
||||
SCOREINIT:710,2950
|
||||
SCOREDIFF:193
|
||||
|
||||
#START
|
||||
#MEASURE 6/4
|
||||
#SCROLL 0.66
|
||||
0,
|
||||
#GOGOSTART
|
||||
300110101010,
|
||||
201101,
|
||||
100110100110,
|
||||
500000000000000000000000000000000008000000000000000000000000200000000000,
|
||||
|
||||
100101,
|
||||
101020200011,
|
||||
101202,
|
||||
201122, //9
|
||||
|
||||
300110101010,
|
||||
201100,
|
||||
100110100110,
|
||||
500000000000000000000000000000000008000000000000000000000000200000000000,
|
||||
|
||||
101011100010,
|
||||
100111,
|
||||
7,
|
||||
000802, //17
|
||||
|
||||
300110101010,
|
||||
201101,
|
||||
100110100110,
|
||||
500000000000000000000000000000000008000000000000000000000000200000000000,
|
||||
|
||||
100101,
|
||||
101020200011,
|
||||
101202,
|
||||
201122, //25
|
||||
|
||||
300110101010,
|
||||
201100,
|
||||
100110100110,
|
||||
500000000000000000000000000000000008000000000000000000000000000000000000,
|
||||
|
||||
101011100010,
|
||||
100111,
|
||||
900000000000000000000000000000000000000000000000000000000000000000000009,
|
||||
000000000000000000000008000000000000000000000000000000000000000000000000, //33
|
||||
#GOGOEND
|
||||
|
||||
112112,
|
||||
122200,
|
||||
112112,
|
||||
122200,
|
||||
|
||||
111122,
|
||||
111200,
|
||||
112112,
|
||||
122200, //41
|
||||
|
||||
100110100011,
|
||||
101100,
|
||||
100110100010,
|
||||
11,
|
||||
|
||||
100022200010,
|
||||
100010100011,
|
||||
5,
|
||||
000000000000000000000000000000000000000000000000000000000008000000000000, //49
|
||||
|
||||
001010100022,
|
||||
201100,
|
||||
001010100022,
|
||||
200022200010,
|
||||
|
||||
100110202020,
|
||||
201200,
|
||||
011211,
|
||||
011201, //57
|
||||
|
||||
101100202020,
|
||||
101100202020,
|
||||
101100202020,
|
||||
202200201010,
|
||||
|
||||
101100102020,
|
||||
101100202020,
|
||||
101100102020,
|
||||
101100101020, //65
|
||||
|
||||
#GOGOSTART
|
||||
300110101010,
|
||||
201101,
|
||||
100110100110,
|
||||
500000000000000000000000000000000008000000000000000000000000200000000000,
|
||||
|
||||
101101,
|
||||
101020200011,
|
||||
101201,
|
||||
101122, //73
|
||||
|
||||
300110101010,
|
||||
201101,
|
||||
100110100110,
|
||||
500000000000000000000000000000000008000000000000000000000000200000000000,
|
||||
|
||||
101011100010,
|
||||
100221,
|
||||
9,
|
||||
09008000, //81
|
||||
#GOGOEND
|
||||
|
||||
0,
|
||||
0,
|
||||
0,
|
||||
0, //85
|
||||
#END
|
||||
|
||||
|
||||
COURSE:Normal
|
||||
LEVEL:4
|
||||
BALLOON:13,12,12,13
|
||||
SCOREINIT:860,5410
|
||||
SCOREDIFF:295
|
||||
|
||||
#START
|
||||
#MEASURE 6/4
|
||||
#SCROLL 0.66
|
||||
0,
|
||||
#GOGOSTART
|
||||
301100,
|
||||
201100,
|
||||
101101,
|
||||
500000000000000000000000000000000008000000000000000000000000000000000000,
|
||||
|
||||
100101,
|
||||
100201,
|
||||
100202,
|
||||
2, //9
|
||||
|
||||
301100,
|
||||
201100,
|
||||
101101,
|
||||
500000000000000000000000000000000008000000000000000000000000000000000000,
|
||||
|
||||
100101,
|
||||
100101,
|
||||
7,
|
||||
08, //17
|
||||
|
||||
301100,
|
||||
201100,
|
||||
101101,
|
||||
500000000000000000000000000000000008000000000000000000000000000000000000,
|
||||
|
||||
100101,
|
||||
100201,
|
||||
100202,
|
||||
2, //25
|
||||
|
||||
301100,
|
||||
201100,
|
||||
101101,
|
||||
500000000000000000000000000000000008000000000000000000000000000000000000,
|
||||
|
||||
100101,
|
||||
100101,
|
||||
900000000000000000000000000000000000000000000000000000000000000000000009,
|
||||
000000000000000000000008000000000000000000000000000000000000000000000000, //33
|
||||
#GOGOEND
|
||||
|
||||
11,
|
||||
202200,
|
||||
11,
|
||||
202200,
|
||||
|
||||
11,
|
||||
101100,
|
||||
11,
|
||||
201100, //41
|
||||
|
||||
101100,
|
||||
101100,
|
||||
101101,
|
||||
11,
|
||||
|
||||
202202,
|
||||
200101,
|
||||
5,
|
||||
000000000000000000000000000000000008000000000000000000000000000000000000, //49
|
||||
|
||||
011100,
|
||||
21,
|
||||
011100,
|
||||
22,
|
||||
|
||||
12,
|
||||
22,
|
||||
7,
|
||||
000000000000000000000008000000000000000000000000000000000000000000000000, //57
|
||||
|
||||
110200,
|
||||
110200,
|
||||
110200,
|
||||
220200,
|
||||
|
||||
110100,
|
||||
110200,
|
||||
110100,
|
||||
2, //65
|
||||
|
||||
#GOGOSTART
|
||||
301100,
|
||||
201100,
|
||||
101101,
|
||||
500000000000000000000000000000000008000000000000000000000000000000000000,
|
||||
|
||||
100101,
|
||||
100201,
|
||||
100201,
|
||||
1, //73
|
||||
|
||||
301100,
|
||||
201100,
|
||||
101101,
|
||||
500000000000000000000000000000000008000000000000000000000000000000000000,
|
||||
|
||||
100101,
|
||||
100201,
|
||||
9,
|
||||
09008000, //81
|
||||
#GOGOEND
|
||||
|
||||
0,
|
||||
0,
|
||||
0,
|
||||
0, //85
|
||||
#END
|
||||
|
||||
|
||||
COURSE:Easy
|
||||
LEVEL:2
|
||||
BALLOON:10,9,9,10
|
||||
SCOREINIT:980,11020
|
||||
SCOREDIFF:645
|
||||
|
||||
#START
|
||||
#MEASURE 6/4
|
||||
#SCROLL 0.66
|
||||
0,
|
||||
#GOGOSTART
|
||||
31,
|
||||
2,
|
||||
11,
|
||||
500000000000000000000000000000000008000000000000000000000000000000000000,
|
||||
|
||||
11,
|
||||
1,
|
||||
12,
|
||||
2, //9
|
||||
|
||||
31,
|
||||
2,
|
||||
11,
|
||||
500000000000000000000000000000000008000000000000000000000000000000000000,
|
||||
|
||||
11,
|
||||
1,
|
||||
7,
|
||||
08, //17
|
||||
|
||||
31,
|
||||
2,
|
||||
11,
|
||||
500000000000000000000000000000000008000000000000000000000000000000000000,
|
||||
|
||||
11,
|
||||
1,
|
||||
12,
|
||||
2, //25
|
||||
|
||||
31,
|
||||
2,
|
||||
11,
|
||||
500000000000000000000000000000000008000000000000000000000000000000000000,
|
||||
|
||||
11,
|
||||
1,
|
||||
900000000000000000000000000000000000000000000000000000000000000000000009,
|
||||
000000000000000000000008000000000000000000000000000000000000000000000000, //33
|
||||
#GOGOEND
|
||||
|
||||
1,
|
||||
2,
|
||||
1,
|
||||
2,
|
||||
|
||||
1,
|
||||
1,
|
||||
1,
|
||||
2, //41
|
||||
|
||||
11,
|
||||
1,
|
||||
11,
|
||||
1,
|
||||
|
||||
22,
|
||||
2,
|
||||
5,
|
||||
000000000000000000000000000000000008000000000000000000000000000000000000, //49
|
||||
|
||||
01,
|
||||
2,
|
||||
01,
|
||||
2,
|
||||
|
||||
02,
|
||||
02,
|
||||
7,
|
||||
000000000000000000000008000000000000000000000000000000000000000000000000, //57
|
||||
|
||||
1,
|
||||
1,
|
||||
2,
|
||||
2,
|
||||
|
||||
11,
|
||||
1,
|
||||
11,
|
||||
2, //65
|
||||
|
||||
#GOGOSTART
|
||||
31,
|
||||
2,
|
||||
11,
|
||||
500000000000000000000000000000000008000000000000000000000000000000000000,
|
||||
|
||||
11,
|
||||
1,
|
||||
12,
|
||||
2, //73
|
||||
|
||||
31,
|
||||
2,
|
||||
11,
|
||||
500000000000000000000000000000000008000000000000000000000000000000000000,
|
||||
|
||||
11,
|
||||
1,
|
||||
9,
|
||||
09008000, //81
|
||||
#GOGOEND
|
||||
|
||||
0,
|
||||
0,
|
||||
0,
|
||||
0, //85
|
||||
#END
|
||||
Reference in New Issue
Block a user