This commit is contained in:
2026-03-04 23:59:27 +09:00
parent 6e0312f5b4
commit 4b4e2b8c98
1128 changed files with 668765 additions and 0 deletions

593
tja/1126.tja Normal file
View File

@@ -0,0 +1,593 @@
//TJADB Project
TITLE:Kuraberarekko
TITLEJA:くらべられっ子
SUBTITLE:--TUYU
SUBTITLEJA:ツユ
BPM:194
WAVE:Kuraberarekko.ogg
OFFSET:-1.288
DEMOSTART:61.887
COURSE:Oni
LEVEL:7
BALLOON:13,9,13,23,21,28
SCOREINIT:2080
SCOREDIFF:0
#START
100101100000,
100101100000,
100101100200,
1,
100101100000,
100101100000,
100101100200,
1022, //8
101100100000,
101100100000,
101100100200,
2022,
1112,
5,
000000000000000000000000000008000000000000000000,
1112, //16
30101211,
02121121,
1112,
01212221,
10101211,
02121121,
1112,
700000000000000000000000000000000000000008000000, //24
10112001,
12112001,
12122011,
2110,
1122,
10112011,
20112211,
500000000000000000000000000008000000000000000000, //32
10112122,
10102001,
10012010,
70000801,
10112120,
11021021,
10111221,
12112120, //40
1000201110001020,
20122211,
1700,
0811,
11221120,
11221220,
22112202,
300300300101,
102200200000, //49
#GOGOSTART
301201100200,
101201100200,
100102200101,
500000000000000000000008000000000000200000000000,
100101201102,
201201101200,
100101200200,
100200102201, //57
102201200100,
101201100200,
101102200200,
100200101201,
1212,
6,
000000000000000000000000000008000000000000000000,
1112, //65
#GOGOEND
30101102,
02112122,
10101102,
01112121,
10002011,
02111122,
1111,
01222000, //73
10202022,
2220,
10202220,
1222,
7,
00000800,
1121,
200000000000000000000000500000000000000008000000, //81
#GOGOSTART
301201100200,
101201100200,
101102200201,
500000000000000000000008000000000000200000000000,
101201100102,
202201102200,
101201102201,
100200101201, //89
100000001000200000001000200000000000200200200000,
100000001000200000001000200000000000200200200000,
101101101201,
100000000000200200200000200000001000100000001000,
10212022,
6,
000000000000000000000000000008000000000000000000,
1000111120101010, //97
#GOGOEND
7,
000000000000000000000008000000000000200000000000,
20101022,
2122,
5,
000000000000000000000000000008000000200000000000,
7,
000000000000000000000000000000000000000000000008,
0,
0, //107
#END
COURSE:Hard
LEVEL:5
BALLOON:10,18,17,23
SCOREINIT:3060
SCOREDIFF:0
#START
1110,
11,
1110,
2,
11,
1110,
11,
22, //8
1110,
1110,
1022,
21,
1111,
5,
000000000000000000000000000008000000000000000000,
1110, //16
3110,
10001120,
1110,
20002220,
1110,
10001120,
1112,
1, //24
10112000,
10112000,
10122000,
2220,
1122,
1120,
20111010,
500000000000000000000000000008000000000000000000, //32
1122,
1120,
1011,
3,
10110220,
500000000000000000000000000000000008000000000000,
10111020,
10112020, //40
10050000,
000000000008000000000000200000000000100000100000,
1700,
0811,
11101120,
11101120,
20101001,
3330,
1220, //49
#GOGOSTART
300101100200,
100101100200,
100102200100,
500000000000000000000008000000000000000000000000,
100101100100,
200201100100,
100101100200,
100000101100, //57
100101100100,
200202200000,
100101100200,
100000101100,
1112,
6,
000000000000000000000000000008000000000000000000,
1111, //65
#GOGOEND
30101101,
10112020,
10101102,
20112020,
10000011,
10111020,
1111,
20222010, //73
22,
2,
2022,
22,
7,
00000800,
1111,
02, //81
#GOGOSTART
300101100200,
100101100200,
100102200200,
500000000000000000000008000000000000000000000000,
100101100100,
200201100200,
100101100200,
100000101100, //89
100101100200,
101100200100,
101100100200,
100000101100,
1222,
6,
000000000000000000000000000008000000000000000000,
1112, //97
#GOGOEND
7,
000000000000000000000008000000000000200000000000,
20000022,
2001,
5,
000000000000000000000000000008000000000000000000,
9,
000000000000000000000009000000000000000000000008,
0,
0, //107
#END
COURSE:Normal
LEVEL:2
BALLOON:12,11,15
SCOREINIT:5200
SCOREDIFF:0
#START
11,
1,
11,
2,
1,
1,
11,
2, //8
1,
2,
12,
2,
11,
5,
000000000000000000000000000008000000000000000000,
1110, //16
3,
11,
11,
2,
11,
1,
1110,
2, //24
1,
1,
1110,
2,
1110,
1110,
1111,
500000000000000000000000000008000000000000000000, //32
1110,
1110,
1011,
3,
10110000,
12,
10110000,
12, //40
10011000,
10011000,
20022000,
11,
1110,
1110,
22,
3330,
0, //49
#GOGOSTART
3110,
1110,
1122,
500000000000000000000008000000000000000000000000,
1110,
12,
1110,
1011, //57
11,
12,
1110,
1011,
1011,
6,
000000000000000000000000000008000000000000000000,
1110, //65
#GOGOEND
31,
1,
11,
2,
1,
1,
1110,
1, //73
2,
2,
22,
2,
7,
00000800,
1011,
0, //81
#GOGOSTART
3110,
1110,
1122,
500000000000000000000008000000000000000000000000,
1110,
22,
1110,
1011, //89
11,
12,
1110,
1011,
1011,
6,
000000000000000000000000000008000000000000000000,
1110, //97
#GOGOEND
7,
000000000000000000000008000000000000000000000000,
2002,
2001,
5,
000000000000000000000000000008000000000000000000,
9,
000000000000000000000009000000000000000000000008,
0,
0, //107
#END
COURSE:Easy
LEVEL:2
BALLOON:10,9,12
SCOREINIT:8700
SCOREDIFF:0
#START
1,
1,
11,
1,
1,
1,
11,
1, //8
1,
2,
11,
1,
11,
5,
000000000000000000000000000008000000000000000000,
1, //16
3,
0,
11,
0,
2,
0,
11,
1, //24
1,
1,
1,
2,
11,
1,
11,
500000000000000000000000000008000000000000000000, //32
11,
1,
1,
3,
1,
2,
1,
22, //40
1,
1,
22,
2,
11,
22,
11,
3,
0, //49
#GOGOSTART
3110,
1,
1110,
1,
11,
22,
11,
1, //57
1,
2,
11,
1,
1,
0,
600000000000000000000000000008000000000000000000,
1, //65
#GOGOEND
3,
01,
1,
02,
2,
01,
1,
0, //73
2,
0,
2,
2,
7,
00000800,
11,
0, //81
#GOGOSTART
3110,
1,
1110,
1,
11,
22,
11,
1, //89
1,
2,
11,
1,
1,
6,
000000000000000000000000000008000000000000000000,
1, //97
#GOGOEND
7,
000000000000000000000008000000000000000000000000,
2,
2,
5,
000000000000000000000000000008000000000000000000,
9,
000000000000000000000009000000000000000000000008,
0,
0, //107
#END