tja
This commit is contained in:
742
tja/1131.tja
Normal file
742
tja/1131.tja
Normal file
@@ -0,0 +1,742 @@
|
||||
//TJADB Project
|
||||
TITLE:Lovely-X -AC16 Chart-
|
||||
TITLEJA:ラブリーX
|
||||
SUBTITLE:--Yuri Misumi feat. Yoshihito Yano/NEW RALLY-X
|
||||
SUBTITLEJA:AC16譜面
|
||||
BPM:134
|
||||
WAVE:Lovely-X.ogg
|
||||
OFFSET:-2.146
|
||||
DEMOSTART:34.375
|
||||
|
||||
COURSE:Edit
|
||||
LEVEL:8
|
||||
BALLOON:
|
||||
SCOREINIT:480,1520
|
||||
SCOREDIFF:120
|
||||
|
||||
#START
|
||||
#SCROLL 1.03
|
||||
0000000011202000,
|
||||
10101022,
|
||||
1010201022102210, //3
|
||||
|
||||
100000100000100011200200,
|
||||
11123440,
|
||||
1000100010221020, //6
|
||||
|
||||
11221122,
|
||||
11221332,
|
||||
11221122,
|
||||
1010202011202220, //10
|
||||
|
||||
1010221210102020,
|
||||
1010221210102120,
|
||||
1010221210102120,
|
||||
1120220211012120, //14
|
||||
|
||||
1010221210102120,
|
||||
1010221210102120,
|
||||
1010221210102120,
|
||||
1220120212121120, //18
|
||||
|
||||
#GOGOSTART
|
||||
100000200000100000200200100000202020100000200000,
|
||||
1020102211021020,
|
||||
100000200000100000200200100000202020100000200000,
|
||||
1111201012002011, //22
|
||||
|
||||
100000200000100000200200100000202020100000200000,
|
||||
100000200000100000200200100000202020100100200000,
|
||||
100000200000100000200200100000202020100000200000,
|
||||
100100100100200000200200100100202020100100200100, //26
|
||||
|
||||
11221120,
|
||||
1122112211221122,
|
||||
11221122,
|
||||
1220122110101220, //30
|
||||
#GOGOEND
|
||||
|
||||
30121012,
|
||||
11121112,
|
||||
11221122,
|
||||
1010202012021110, //34
|
||||
|
||||
4021102010102020,
|
||||
1010201010222020,
|
||||
1022101020201010,
|
||||
1122101012021020, //38
|
||||
|
||||
1012201010221020,
|
||||
1012201010121020,
|
||||
1012201010221020,
|
||||
1022102000102000,
|
||||
1102101102102010, //43
|
||||
|
||||
4202,
|
||||
00200330,
|
||||
11221122,
|
||||
11221444, //47
|
||||
|
||||
1010221210102120,
|
||||
1010221210102120,
|
||||
1010221210102120,
|
||||
1120220211012120, //51
|
||||
|
||||
1010221210102120,
|
||||
1010221210102120,
|
||||
1010221210102120,
|
||||
1220120212121120, //55
|
||||
|
||||
#GOGOSTART
|
||||
1120221211202120,
|
||||
1120221211202120,
|
||||
1120221211202120,
|
||||
1120220211212020, //59
|
||||
|
||||
1120221211202102,
|
||||
1120221211201202,
|
||||
1120221211201202,
|
||||
1220121212121120, //63
|
||||
|
||||
300000300000300022200200,
|
||||
1020102011212210,
|
||||
4030300111210040,
|
||||
0000000003000000, //67
|
||||
#GOGOEND
|
||||
|
||||
0,
|
||||
0,
|
||||
0,
|
||||
#END
|
||||
|
||||
|
||||
COURSE:Oni
|
||||
LEVEL:7
|
||||
BALLOON:
|
||||
SCOREINIT:600,1960
|
||||
SCOREDIFF:160
|
||||
|
||||
#START
|
||||
#SCROLL 1.03
|
||||
0,
|
||||
0,
|
||||
0,
|
||||
|
||||
1000100010222020,
|
||||
1010102000101000,
|
||||
1000100010111010,
|
||||
|
||||
3,
|
||||
00000110,
|
||||
11121112,
|
||||
11121000,
|
||||
|
||||
1011102010102000,
|
||||
1011102010111000,
|
||||
1011102011011010,
|
||||
1022202010111020,
|
||||
|
||||
1011102010102000,
|
||||
1011102010111000,
|
||||
1011102011011010,
|
||||
1022202010111022,
|
||||
|
||||
#GOGOSTART
|
||||
1000102010111020,
|
||||
1101102010222020,
|
||||
1101102010222020,
|
||||
500000000000000000000008000000200200200000200000,
|
||||
|
||||
1000102010111020,
|
||||
1101102010222020,
|
||||
1010102210221000,
|
||||
500000000000000000000008000000200200200000200000,
|
||||
|
||||
1011102011102000,
|
||||
1011102011102000,
|
||||
1011102011102000,
|
||||
1011102010101000,
|
||||
#GOGOEND
|
||||
|
||||
10201121,
|
||||
1010102210101020,
|
||||
10201121,
|
||||
1000200011011110,
|
||||
|
||||
10001100,
|
||||
1011101010222020,
|
||||
10001100,
|
||||
1211101022022020,
|
||||
|
||||
1022202011021020,
|
||||
1022202011021020,
|
||||
1022202011021020,
|
||||
12212212,
|
||||
2202202202202220,
|
||||
|
||||
0,
|
||||
00000110,
|
||||
1011102011011020,
|
||||
1011102210000000,
|
||||
|
||||
1011102011011020,
|
||||
1011102010102000,
|
||||
1011102011011020,
|
||||
1022202011011010,
|
||||
|
||||
1011102011011020,
|
||||
1011102010102000,
|
||||
1011102011011020,
|
||||
1022202010111022,
|
||||
|
||||
#GOGOSTART
|
||||
1011102011011020,
|
||||
1011102010102000,
|
||||
1011102011011020,
|
||||
1022202011011010,
|
||||
|
||||
1011102011011020,
|
||||
1011102010102000,
|
||||
1011102011011020,
|
||||
1022202010111022,
|
||||
|
||||
1000100010222020,
|
||||
0000000011121112,
|
||||
1011100010100030,
|
||||
0,
|
||||
#GOGOEND
|
||||
|
||||
0,
|
||||
0,
|
||||
0,
|
||||
#END
|
||||
|
||||
|
||||
COURSE:Hard
|
||||
LEVEL:6
|
||||
BALLOON:16,16
|
||||
SCOREINIT:580,2540
|
||||
SCOREDIFF:165
|
||||
|
||||
#START
|
||||
#SCROLL 1.03
|
||||
0,
|
||||
0,
|
||||
0,
|
||||
|
||||
3000300030222020,
|
||||
1000101000404000,
|
||||
3000300030222020,
|
||||
3,
|
||||
|
||||
#SECTION
|
||||
#BRANCHSTART p,60,80
|
||||
#N
|
||||
00000220,
|
||||
11121010,
|
||||
11121000,
|
||||
|
||||
11121020,
|
||||
11121020,
|
||||
11121010,
|
||||
1022200010001000,
|
||||
|
||||
#E
|
||||
00000220,
|
||||
11121010,
|
||||
11121000,
|
||||
|
||||
11121120,
|
||||
11121020,
|
||||
11121110,
|
||||
1022202010001000,
|
||||
|
||||
#M
|
||||
00000220,
|
||||
11121112,
|
||||
11121000,
|
||||
|
||||
11121120,
|
||||
11121020,
|
||||
11121112,
|
||||
1022202010001000,
|
||||
|
||||
#SECTION
|
||||
#BRANCHSTART p,60,80
|
||||
#N
|
||||
11121020,
|
||||
11121020,
|
||||
11121010,
|
||||
1022200010001000,
|
||||
|
||||
#E
|
||||
11121120,
|
||||
11121020,
|
||||
11121110,
|
||||
1022202010001000,
|
||||
|
||||
#M
|
||||
11121120,
|
||||
11121020,
|
||||
11121112,
|
||||
1022202010001000,
|
||||
|
||||
#SECTION
|
||||
#BRANCHSTART p,60,80
|
||||
#N
|
||||
#GOGOSTART
|
||||
30121110,
|
||||
1000100010222000,
|
||||
11201020,
|
||||
300000000000100000100000500000000008000000000000,
|
||||
|
||||
#E
|
||||
#GOGOSTART
|
||||
30121112,
|
||||
1000100010222000,
|
||||
11201120,
|
||||
300000000000100000100000500000000008000000000000,
|
||||
|
||||
#M
|
||||
#GOGOSTART
|
||||
30121112,
|
||||
1000101010222020,
|
||||
11201120,
|
||||
300000000000100000100000500000000008000000000000,
|
||||
|
||||
#SECTION
|
||||
#BRANCHSTART p,60,80
|
||||
#N
|
||||
10121110,
|
||||
1000100010222000,
|
||||
11201020,
|
||||
300000000000300000300000600000000008000000000000,
|
||||
|
||||
#E
|
||||
10121112,
|
||||
1000100010222000,
|
||||
11201120,
|
||||
300000000000300000300000600000000008000000000000,
|
||||
|
||||
#M
|
||||
10121112,
|
||||
1000101010222020,
|
||||
11201120,
|
||||
300000000000300000300000600000000008000000000000,
|
||||
|
||||
#SECTION
|
||||
#BRANCHSTART p,60,80
|
||||
#N
|
||||
11121020,
|
||||
11121020,
|
||||
11121020,
|
||||
1011100030003000,
|
||||
#GOGOEND
|
||||
|
||||
#E
|
||||
11121020,
|
||||
11121020,
|
||||
11121120,
|
||||
1011100030003000,
|
||||
#GOGOEND
|
||||
|
||||
#M
|
||||
11121020,
|
||||
11121020,
|
||||
11121120,
|
||||
1011100030003000,
|
||||
#GOGOEND
|
||||
|
||||
#SECTION
|
||||
#BRANCHSTART p,60,80
|
||||
#N
|
||||
0,
|
||||
10121012,
|
||||
10201120,
|
||||
10001020,
|
||||
|
||||
#E
|
||||
0,
|
||||
10121012,
|
||||
10201120,
|
||||
10001020,
|
||||
|
||||
#M
|
||||
0,
|
||||
11121112,
|
||||
10201120,
|
||||
10001020,
|
||||
|
||||
#SECTION
|
||||
#BRANCHSTART p,60,80
|
||||
#N
|
||||
10001100,
|
||||
1010001010222000,
|
||||
10001100,
|
||||
1010001022022000,
|
||||
|
||||
11011020,
|
||||
11011020,
|
||||
1212,
|
||||
30210210,
|
||||
700000000000000000000000000000000000000000000008,
|
||||
|
||||
#E
|
||||
10001100,
|
||||
1010001010222000,
|
||||
10001100,
|
||||
1010001022022000,
|
||||
|
||||
1022200011011000,
|
||||
1022200011011000,
|
||||
1022200011011000,
|
||||
32232232,
|
||||
700000000000000000000000000000000000000000000008,
|
||||
|
||||
#M
|
||||
10001100,
|
||||
1010001010222020,
|
||||
10001100,
|
||||
1010001022022020,
|
||||
|
||||
1022202011011000,
|
||||
1022202011011000,
|
||||
1022202011011000,
|
||||
32232232,
|
||||
2202202202204000,
|
||||
|
||||
#SECTION
|
||||
#BRANCHSTART p,60,80
|
||||
#N
|
||||
0,
|
||||
00000220,
|
||||
11121010,
|
||||
11121000,
|
||||
|
||||
11121020,
|
||||
11121020,
|
||||
11121020,
|
||||
1022200010001000,
|
||||
|
||||
#E
|
||||
0,
|
||||
00000220,
|
||||
11121010,
|
||||
11121000,
|
||||
|
||||
11121120,
|
||||
11121020,
|
||||
11121120,
|
||||
1022200010001000,
|
||||
|
||||
#M
|
||||
0,
|
||||
00000220,
|
||||
11121112,
|
||||
11121000,
|
||||
|
||||
11121120,
|
||||
1011102010002000,
|
||||
11121120,
|
||||
1022202010001000,
|
||||
|
||||
#SECTION
|
||||
#BRANCHSTART p,60,80
|
||||
#N
|
||||
11121020,
|
||||
11121020,
|
||||
11121020,
|
||||
1022200030003000,
|
||||
|
||||
#E
|
||||
11121120,
|
||||
11121020,
|
||||
11121120,
|
||||
1022200030003000,
|
||||
|
||||
#M
|
||||
11121120,
|
||||
1011102010002000,
|
||||
11121120,
|
||||
1022202030003000,
|
||||
|
||||
#SECTION
|
||||
#BRANCHSTART p,60,80
|
||||
#N
|
||||
#GOGOSTART
|
||||
11121020,
|
||||
1011102010002000,
|
||||
11121020,
|
||||
1022200010101000,
|
||||
|
||||
#E
|
||||
#GOGOSTART
|
||||
11121120,
|
||||
1011102010002000,
|
||||
11121120,
|
||||
1022200010101000,
|
||||
|
||||
#M
|
||||
#GOGOSTART
|
||||
11121120,
|
||||
1011102010102000,
|
||||
11121121,
|
||||
1022202010101000,
|
||||
|
||||
#SECTION
|
||||
#BRANCHSTART p,60,80
|
||||
#N
|
||||
11121020,
|
||||
1011102010002000,
|
||||
11121120,
|
||||
1022200010101000,
|
||||
|
||||
#E
|
||||
11121120,
|
||||
1011102010102000,
|
||||
11121120,
|
||||
1022200010101000,
|
||||
|
||||
#M
|
||||
11121121,
|
||||
1011102010102000,
|
||||
11121121,
|
||||
1022200010101000,
|
||||
|
||||
#SECTION
|
||||
#BRANCHSTART p,60,80
|
||||
#N
|
||||
3000300030222000,
|
||||
100000000000100000500000000000000008000000000000,
|
||||
33302206,
|
||||
000000000000000008000000000300000000000000000000,
|
||||
#GOGOEND
|
||||
0,
|
||||
0,
|
||||
0,
|
||||
|
||||
#E
|
||||
3000300030222000,
|
||||
100000000000100000500000000000000008000000000000,
|
||||
33302206,
|
||||
000000000000000008000000000300000000000000000000,
|
||||
#GOGOEND
|
||||
0,
|
||||
0,
|
||||
0,
|
||||
|
||||
#M
|
||||
3000300030222020,
|
||||
100000000000100000500000000000000008000000000000,
|
||||
33302206,
|
||||
000000000000000008000000000300000000000000000000,
|
||||
#GOGOEND
|
||||
0,
|
||||
0,
|
||||
0,
|
||||
|
||||
#BRANCHEND
|
||||
#END
|
||||
|
||||
|
||||
COURSE:Normal
|
||||
LEVEL:5
|
||||
BALLOON:8
|
||||
SCOREINIT:770,4610
|
||||
SCOREDIFF:243
|
||||
|
||||
#START
|
||||
#SCROLL 1.03
|
||||
0,
|
||||
0,
|
||||
0,
|
||||
|
||||
1110,
|
||||
10110000,
|
||||
1110,
|
||||
|
||||
30001110,
|
||||
10000220,
|
||||
30001110,
|
||||
1,
|
||||
|
||||
10201120,
|
||||
1212,
|
||||
10201120,
|
||||
500000000000000000000000000000000008000000000000,
|
||||
|
||||
10201120,
|
||||
1212,
|
||||
10201120,
|
||||
3,
|
||||
|
||||
#GOGOSTART
|
||||
10221020,
|
||||
10111000,
|
||||
10221022,
|
||||
500000000000000000000000000000000008000000000000,
|
||||
|
||||
10221020,
|
||||
10111000,
|
||||
10221020,
|
||||
500000000000000000000000000000000008000000000000,
|
||||
|
||||
10201120,
|
||||
10201110,
|
||||
10201120,
|
||||
500000000000000000000000000000000008000000000000,
|
||||
#GOGOEND
|
||||
|
||||
0,
|
||||
10201120,
|
||||
10201120,
|
||||
1011,
|
||||
|
||||
30003300,
|
||||
10222000,
|
||||
30003300,
|
||||
10222000,
|
||||
|
||||
11022000,
|
||||
11022000,
|
||||
1144,
|
||||
9009,
|
||||
8,
|
||||
|
||||
30001110,
|
||||
10000220,
|
||||
30001110,
|
||||
1,
|
||||
|
||||
10201120,
|
||||
1212,
|
||||
10201120,
|
||||
500000000000000000000000000000000008000000000000,
|
||||
|
||||
10201120,
|
||||
1212,
|
||||
10201120,
|
||||
3,
|
||||
|
||||
#GOGOSTART
|
||||
10201120,
|
||||
10202210,
|
||||
10201120,
|
||||
500000000000000000000000000000000008000000000000,
|
||||
|
||||
10201120,
|
||||
10202210,
|
||||
10201120,
|
||||
3,
|
||||
|
||||
3330,
|
||||
00000220,
|
||||
33304406,
|
||||
000000000000000000000000000000000000000008000000,
|
||||
#GOGOEND
|
||||
|
||||
0,
|
||||
0,
|
||||
0,
|
||||
#END
|
||||
|
||||
|
||||
COURSE:Easy
|
||||
LEVEL:4
|
||||
BALLOON:6
|
||||
SCOREINIT:690,6900
|
||||
SCOREDIFF:263
|
||||
|
||||
#START
|
||||
0,
|
||||
0,
|
||||
0,
|
||||
|
||||
1110,
|
||||
1,
|
||||
1110,
|
||||
|
||||
3,
|
||||
10000220,
|
||||
3,
|
||||
1,
|
||||
|
||||
1110,
|
||||
1012,
|
||||
1110,
|
||||
500000000000000000000000000008000000000000000000,
|
||||
|
||||
1110,
|
||||
1012,
|
||||
1110,
|
||||
3,
|
||||
|
||||
#GOGOSTART
|
||||
1212,
|
||||
1110,
|
||||
1212,
|
||||
500000000000000000000000000008000000000000000000,
|
||||
|
||||
1212,
|
||||
1110,
|
||||
1212,
|
||||
500000000000000000000000000008000000000000000000,
|
||||
|
||||
1012,
|
||||
1012,
|
||||
1012,
|
||||
500000000000000000000000000000000008000000000000,
|
||||
#GOGOEND
|
||||
|
||||
0,
|
||||
1011,
|
||||
1001,
|
||||
1,
|
||||
|
||||
30003300,
|
||||
1110,
|
||||
30003300,
|
||||
1110,
|
||||
|
||||
1012,
|
||||
1012,
|
||||
1011,
|
||||
9009,
|
||||
8,
|
||||
|
||||
3,
|
||||
10000220,
|
||||
3,
|
||||
1,
|
||||
|
||||
1110,
|
||||
1012,
|
||||
1110,
|
||||
500000000000000000000000000008000000000000000000,
|
||||
|
||||
1110,
|
||||
1012,
|
||||
1110,
|
||||
3,
|
||||
|
||||
#GOGOSTART
|
||||
1212,
|
||||
1012,
|
||||
1212,
|
||||
500000000000000000000000000008000000000000000000,
|
||||
|
||||
1210,
|
||||
1212,
|
||||
1210,
|
||||
3,
|
||||
|
||||
3330,
|
||||
00000220,
|
||||
30300006,
|
||||
000000000000000000000000000000000000000008000000,
|
||||
#GOGOEND
|
||||
|
||||
0,
|
||||
0,
|
||||
0,
|
||||
#END
|
||||
Reference in New Issue
Block a user