This commit is contained in:
2026-03-04 23:59:27 +09:00
parent 6e0312f5b4
commit 4b4e2b8c98
1128 changed files with 668765 additions and 0 deletions

236
tja/1136.tja Normal file
View File

@@ -0,0 +1,236 @@
//TJADB Project
TITLE:Hololive Ondo
TITLEJA:ホロメン音頭
SUBTITLE:hololive IDOL PROJECT
SUBTITLEJA:--hololive IDOL PROJECT
BPM:96
WAVE:Hololive Ondo.ogg
OFFSET:-0.287
COURSE:Oni
LEVEL:6
BALLOON:
SCOREINIT:2780
SCOREDIFF:0
#START
1002200210102010,
1002200210101022,
1022202011222020,
3030003030112220,
1022202010022020,
3030003030112220,
1022202010222020,
1022202010221020,
1022202010221020,
3030003030121220,
1022202010222020,
1022202010221020,
1002201010022010,
1022102011011212,
#GOGOSTART
1022102011221020,
3030003030112212,
1022102011222020,
3030003030221110,
1010222010112220,
1121101010102220,
1010222010112220,
1020222020202000,
#GOGOEND
1020202010022020,
1002202010222020,
1022202010221020,
3030003030121220,
1022202010222020,
1022202010221020,
1002201010022010,
1022102011011212,
#GOGOSTART
1022102011221020,
3030003030112212,
1022102011222020,
3030003030222020,
#GOGOEND
1022102010222020,
1012201010002000,
1000002010011020,
33033040,
,
#END
COURSE:Hard
LEVEL:5
BALLOON:15,15,17
SCOREINIT:4480
SCOREDIFF:0
#START
1002200010101000,
1002200010101000,
1010200010021020,
3030003030222020,
1000200010022020,
33033040,
12201022,
1000202010222020,
10221020,
600000000000000000000000000000000000000008000000,
12201122,
1020200010222020,
1002201010022010,
70000008,
#GOGOSTART
1000102010222020,
3030003030222020,
1000102010222020,
300000300000000000300000600000000000000008000000,
11201120,
1101101010102000,
11201120,
10002220,
#GOGOEND
12202022,
1000202020222020,
10221020,
600000000000000000000000000000000000000008000000,
12201122,
1020200010222020,
1002201010022010,
70000008,
#GOGOSTART
1000102010222020,
3030003030222020,
1000102010222020,
300000300000000000300000600000000000000008000000,
#GOGOEND
1011101010222020,
11011020,
1000002010021020,
9,
8,
#END
COURSE:Normal
LEVEL:3
BALLOON:11,11,13
SCOREINIT:8130
SCOREDIFF:0
#START
10001110,
10001110,
1212,
33033000,
11,
33033000,
1012,
10001110,
1012,
600000000000000000000000000000000000000008000000,
10001110,
1212,
10011001,
70000008,
#GOGOSTART
1112,
33033000,
1112,
300000300000000000300000600000000000000008000000,
11001100,
10101100,
11001100,
1022,
#GOGOEND
1022,
20002220,
1212,
600000000000000000000000000000000000000008000000,
10001110,
1212,
10011001,
70000008,
#GOGOSTART
1112,
33033000,
1112,
300000300000000000300000600000000000000008000000,
#GOGOEND
1112,
11011000,
11,
9,
8,
#END
COURSE:Easy
LEVEL:2
BALLOON:7,7,10
SCOREINIT:11720
SCOREDIFF:0
#START
1011,
1011,
11,
33,
11,
33,
11,
1012,
1012,
600000000000000000000000000008000000000000000000,
11,
1012,
11,
70000800,
#GOGOSTART
1112,
33,
1112,
33,
11,
1110,
11,
12,
#GOGOEND
12,
2022,
1012,
600000000000000000000000000008000000000000000000,
11,
1012,
11,
70000800,
#GOGOSTART
1112,
33,
1112,
33,
#GOGOEND
1110,
1012,
11,
9,
8,
#END