tja
This commit is contained in:
670
tja/1147.tja
Normal file
670
tja/1147.tja
Normal file
@@ -0,0 +1,670 @@
|
||||
TITLE:Illusion Flare
|
||||
TITLEJA:Illusion Flare
|
||||
SUBTITLE:--Mihile
|
||||
SUBTITLEJA:ミハイル
|
||||
BPM:180
|
||||
WAVE:Illusion Flare.ogg
|
||||
OFFSET:-1.867
|
||||
DEMOSTART:63.453
|
||||
|
||||
COURSE:Oni
|
||||
LEVEL:10
|
||||
BALLOON:11,6
|
||||
SCOREINIT:
|
||||
SCOREDIFF:
|
||||
|
||||
#START
|
||||
#MEASURE 5/8
|
||||
,
|
||||
#MEASURE 7/8
|
||||
,
|
||||
#MEASURE 5/8
|
||||
2,
|
||||
,
|
||||
,
|
||||
#MEASURE 5/4
|
||||
00000000000000001111,
|
||||
|
||||
#MEASURE 5/8
|
||||
1021002020,
|
||||
1021002020,
|
||||
1021002020,
|
||||
#MEASURE 7/8
|
||||
10102210221222,
|
||||
#MEASURE 5/8
|
||||
1021002020,
|
||||
1021002020,
|
||||
1021002020,
|
||||
#MEASURE 11/8
|
||||
1120112112112112112112,
|
||||
#MEASURE 4/4
|
||||
7008,
|
||||
|
||||
#MEASURE 3/4
|
||||
101200102020,
|
||||
102100102210,
|
||||
202500000000,
|
||||
000000000000008000000000200200200200,
|
||||
101200102020,
|
||||
102100102210,
|
||||
#MEASURE 7/8
|
||||
00212200212200,
|
||||
21221221221222,
|
||||
|
||||
#MEASURE 3/4
|
||||
101200102020,
|
||||
102100102210,
|
||||
202500000000,
|
||||
000000008000000000100100200200200200,
|
||||
#MEASURE 4/4
|
||||
101211202010,
|
||||
121121201010,
|
||||
|
||||
2002105000000000,
|
||||
000000000000000000000008000000100100200100200200,
|
||||
100000000100200000500000000000000008000000100100,
|
||||
#MEASURE 7/8
|
||||
12112112021110,
|
||||
#MEASURE 7/16
|
||||
2012110,
|
||||
2121210,
|
||||
#MEASURE 21/16
|
||||
200000100200100500000
|
||||
000000000000000000000
|
||||
000000000000008000000,
|
||||
#MEASURE 4/4
|
||||
201010101010101010220000,
|
||||
|
||||
100000000111200000000100,
|
||||
0020101020020020,
|
||||
12002120,
|
||||
102020201010102020201111,
|
||||
100000000111200000100200,
|
||||
12112120,
|
||||
|
||||
1112012100001121,
|
||||
#MEASURE 5/8
|
||||
0121002020,
|
||||
#MEASURE 4/4
|
||||
1112012100001121,
|
||||
#MEASURE 5/8
|
||||
0121202020,
|
||||
|
||||
#MEASURE 4/4
|
||||
100100000100101010100100000100101010100200000000,
|
||||
#MEASURE 3/4
|
||||
122122122122,
|
||||
#MEASURE 4/4
|
||||
100200000200101010100200000200101010100200000000,
|
||||
#MEASURE 3/4
|
||||
122121222,
|
||||
|
||||
#MEASURE 4/4
|
||||
1121211121121121,
|
||||
1121211121121121,
|
||||
1121211121121121,
|
||||
101010101010100000000000000000000000000000000
|
||||
|
||||
#GOGOSTART
|
||||
100,
|
||||
|
||||
0010221022121012,
|
||||
1210201012021021,
|
||||
0120201122112022,
|
||||
1220201022122221,
|
||||
0010221022121012,
|
||||
1210201012021021,
|
||||
0120211120120210,
|
||||
100100202020200100200100200010001000200010002000,
|
||||
|
||||
101010200000100100200000100000200000100100200000,
|
||||
1020112010210120,
|
||||
1020112011210121,
|
||||
100000200000101020201010200200100100200100200100,
|
||||
1021025000000000,
|
||||
000000000000000000000008000000200200100100200200,
|
||||
1021025000000000,
|
||||
000000000000000000000008000000200200200200200200,
|
||||
|
||||
1021021002221021,
|
||||
0210221110210250,
|
||||
000000000000000000000008000000100000200100000100,
|
||||
|
||||
#GOGOEND
|
||||
000000000000222111200000,
|
||||
|
||||
1112021020122102,
|
||||
#MEASURE 5/8
|
||||
12212,
|
||||
#MEASURE 4/4
|
||||
1212021020122102,
|
||||
#MEASURE 5/8
|
||||
22212,
|
||||
#MEASURE 4/4
|
||||
1112021020122102,
|
||||
#MEASURE 5/8
|
||||
12212,
|
||||
|
||||
#GOGOSTART
|
||||
#MEASURE 4/4
|
||||
1101011010110110,
|
||||
#MEASURE 5/8
|
||||
2212212212,
|
||||
#MEASURE 4/4
|
||||
1101011010110110,
|
||||
#MEASURE 5/8
|
||||
202010201020100,
|
||||
#MEASURE 4/4
|
||||
1101101101102222,
|
||||
1101101101102222,
|
||||
1021021021221221,
|
||||
2212212270000080,
|
||||
|
||||
#GOGOEND
|
||||
2202202101002022,
|
||||
000100200000100200000100200200200200200000202020,
|
||||
200200100000200200100000100000202020200000000000,
|
||||
|
||||
#GOGOSTART
|
||||
3003022011010030,
|
||||
|
||||
#GOGOEND
|
||||
,
|
||||
,
|
||||
,
|
||||
#END
|
||||
|
||||
COURSE:Hard
|
||||
LEVEL:7
|
||||
BALLOON:6,10,35,21
|
||||
SCOREINIT:
|
||||
SCOREDIFF:
|
||||
|
||||
#START
|
||||
#MEASURE 5/8
|
||||
,
|
||||
#MEASURE 7/8
|
||||
,
|
||||
#MEASURE 5/8
|
||||
2,
|
||||
,
|
||||
,
|
||||
#MEASURE 5/4
|
||||
,
|
||||
|
||||
#MEASURE 5/8
|
||||
1001002020,
|
||||
1001002020,
|
||||
1001002020,
|
||||
#MEASURE 7/8
|
||||
1170008,
|
||||
#MEASURE 5/8
|
||||
1001002020,
|
||||
1001002020,
|
||||
1001002020,
|
||||
#MEASURE 11/8
|
||||
1110100100100100100100,
|
||||
#MEASURE 4/4
|
||||
7008,
|
||||
|
||||
#MEASURE 3/4
|
||||
100100102020,
|
||||
100100102020,
|
||||
102500000000,
|
||||
000000000000008000000000000000000000,
|
||||
100100102020,
|
||||
100100102020,
|
||||
#MEASURE 7/8
|
||||
00201100201100,
|
||||
20110020111000,
|
||||
|
||||
#MEASURE 3/4
|
||||
100100102020,
|
||||
100100102020,
|
||||
102500000000,
|
||||
000000008000000000000000000000000000,
|
||||
#MEASURE 4/4
|
||||
111222,
|
||||
111222,
|
||||
|
||||
1002005000000000,
|
||||
000000000000000008000000000000000000000000000000,
|
||||
1002005000000000,
|
||||
#MEASURE 7/8
|
||||
000000000008000000000300000000100000100000,
|
||||
#MEASURE 7/16
|
||||
3001010,
|
||||
3001010,
|
||||
#MEASURE 21/16
|
||||
300000000100000600000000000000000000000000000000000000000000008,
|
||||
#MEASURE 4/4
|
||||
,
|
||||
|
||||
12,
|
||||
0000000020020020,
|
||||
12,
|
||||
200000200022,
|
||||
12,
|
||||
12,
|
||||
|
||||
1011011100001011,
|
||||
#MEASURE 5/8
|
||||
0111002020,
|
||||
#MEASURE 4/4
|
||||
1011011100001011,
|
||||
#MEASURE 5/8
|
||||
0111002020,
|
||||
|
||||
#MEASURE 4/4
|
||||
500000000000000000000000000000000000008000000000,
|
||||
#MEASURE 3/4
|
||||
,
|
||||
#MEASURE 4/4
|
||||
500000000000000000000000000000000000008000000000,
|
||||
#MEASURE 3/4
|
||||
,
|
||||
|
||||
#MEASURE 4/4
|
||||
7,
|
||||
,
|
||||
,
|
||||
000080000000000
|
||||
|
||||
#GOGOSTART
|
||||
1,
|
||||
|
||||
0000200020022001,
|
||||
0010200010010010,
|
||||
0020200020022010,
|
||||
0010200020022001,
|
||||
0000200020022001,
|
||||
0010200020022010,
|
||||
0010202020020020,
|
||||
100000000100000000100000200020002000200000000000,
|
||||
|
||||
0010002010201110,
|
||||
1020102010201110,
|
||||
1020102010201110,
|
||||
1020102010010010,
|
||||
3003005000000000,
|
||||
000000000000000000000008000000000000000000000000,
|
||||
3003005000000000,
|
||||
000000000000000000000008000000000000000000000000,
|
||||
|
||||
3003002000003003,
|
||||
0020000030030050,
|
||||
000000000000000000000000000000000000000000008000,
|
||||
|
||||
#GOGOEND
|
||||
,
|
||||
|
||||
1001002020100100,
|
||||
#MEASURE 5/8
|
||||
12212,
|
||||
#MEASURE 4/4
|
||||
1001002020101101,
|
||||
#MEASURE 5/8
|
||||
12222,
|
||||
#MEASURE 4/4
|
||||
1001002020100100,
|
||||
#MEASURE 5/8
|
||||
12212,
|
||||
|
||||
#GOGOSTART
|
||||
#MEASURE 4/4
|
||||
500000000000000000000000000008000000000000300000,
|
||||
#MEASURE 5/8
|
||||
,
|
||||
#MEASURE 4/4
|
||||
500000000000000000000000000008000000000000300000,
|
||||
#MEASURE 5/8
|
||||
,
|
||||
#MEASURE 4/4
|
||||
500000000000000000000000000000000000000800000000,
|
||||
500000000000000000000000000008000000000700000000,
|
||||
,
|
||||
,
|
||||
|
||||
#GOGOEND
|
||||
8,
|
||||
,
|
||||
,
|
||||
|
||||
#GOGOSTART
|
||||
3003000011010030,
|
||||
|
||||
#GOGOEND
|
||||
,
|
||||
,
|
||||
,
|
||||
#END
|
||||
|
||||
COURSE:Normal
|
||||
LEVEL:6
|
||||
BALLOON:10,25,12
|
||||
SCOREINIT:
|
||||
SCOREDIFF:
|
||||
|
||||
#START
|
||||
#MEASURE 5/8
|
||||
,
|
||||
#MEASURE 7/8
|
||||
,
|
||||
#MEASURE 5/8
|
||||
2,
|
||||
,
|
||||
,
|
||||
#MEASURE 5/4
|
||||
,
|
||||
|
||||
#MEASURE 5/8
|
||||
1001000000,
|
||||
1001000000,
|
||||
1001000000,
|
||||
#MEASURE 7/8
|
||||
1,
|
||||
#MEASURE 5/8
|
||||
1001000000,
|
||||
1001000000,
|
||||
1001000000,
|
||||
#MEASURE 11/8
|
||||
7,
|
||||
#MEASURE 4/4
|
||||
8,
|
||||
|
||||
#MEASURE 3/4
|
||||
100011,
|
||||
100011,
|
||||
1,
|
||||
,
|
||||
100011,
|
||||
1,
|
||||
#MEASURE 7/8
|
||||
0200200,
|
||||
2,
|
||||
|
||||
#MEASURE 3/4
|
||||
100011,
|
||||
100011,
|
||||
1,
|
||||
,
|
||||
#MEASURE 4/4
|
||||
100111,
|
||||
100111,
|
||||
|
||||
10050000,
|
||||
000000000000000008000000000000000000000000000000,
|
||||
10050000,
|
||||
#MEASURE 7/8
|
||||
000000000008000000000300000000000000100000,
|
||||
#MEASURE 7/16
|
||||
3000010,
|
||||
3000010,
|
||||
#MEASURE 21/16
|
||||
300000000000000600000000000000000000000000000000000000000000008,
|
||||
#MEASURE 4/4
|
||||
,
|
||||
|
||||
12,
|
||||
02,
|
||||
12,
|
||||
02,
|
||||
12,
|
||||
02,
|
||||
|
||||
1000000200001000,
|
||||
#MEASURE 5/8
|
||||
0002000000,
|
||||
#MEASURE 4/4
|
||||
1000000200001000,
|
||||
#MEASURE 5/8
|
||||
0002000000,
|
||||
|
||||
#MEASURE 4/4
|
||||
500000000000000000000000000000000000008000000000,
|
||||
#MEASURE 3/4
|
||||
,
|
||||
#MEASURE 4/4
|
||||
500000000000000000000000000000000000008000000000,
|
||||
#MEASURE 3/4
|
||||
,
|
||||
|
||||
#MEASURE 4/4
|
||||
7,
|
||||
,
|
||||
,
|
||||
000080000000000
|
||||
|
||||
#GOGOSTART
|
||||
1,
|
||||
|
||||
0000000020002001,
|
||||
0000200010010010,
|
||||
0020200020020020,
|
||||
0000200020002001,
|
||||
0000000020002001,
|
||||
0000200010010010,
|
||||
0020200020020020,
|
||||
0222,
|
||||
|
||||
01001020,
|
||||
11201020,
|
||||
11201020,
|
||||
1010200010010010,
|
||||
3003005000000000,
|
||||
000000000000000000000008000000000000000000000000,
|
||||
3003005000000000,
|
||||
000000000000000000000008000000000000000000000000,
|
||||
|
||||
3003002000003003,
|
||||
0020000030030050,
|
||||
000000000000000000000000000000000000000000008000,
|
||||
|
||||
#GOGOEND
|
||||
,
|
||||
|
||||
1001000020000100,
|
||||
#MEASURE 5/8
|
||||
1,
|
||||
#MEASURE 4/4
|
||||
1001000020000100,
|
||||
#MEASURE 5/8
|
||||
1,
|
||||
#MEASURE 4/4
|
||||
1001000020000100,
|
||||
#MEASURE 5/8
|
||||
1,
|
||||
|
||||
#GOGOSTART
|
||||
#MEASURE 4/4
|
||||
500000000000000000000000000008000000000000300000,
|
||||
#MEASURE 5/8
|
||||
,
|
||||
#MEASURE 4/4
|
||||
500000000000000000000000000008000000000000300000,
|
||||
#MEASURE 5/8
|
||||
,
|
||||
#MEASURE 4/4
|
||||
500000000000000000000000000000000000000800000000,
|
||||
500000000000000000000000000008000000000900000000,
|
||||
,
|
||||
,
|
||||
|
||||
#GOGOEND
|
||||
8,
|
||||
,
|
||||
,
|
||||
|
||||
#GOGOSTART
|
||||
3000000030030030,
|
||||
|
||||
#GOGOEND
|
||||
,
|
||||
,
|
||||
,
|
||||
#END
|
||||
|
||||
COURSE:Easy
|
||||
LEVEL:4
|
||||
BALLOON:9,20,10
|
||||
SCOREINIT:
|
||||
SCOREDIFF:
|
||||
|
||||
#START
|
||||
#MEASURE 5/8
|
||||
,
|
||||
#MEASURE 7/8
|
||||
,
|
||||
#MEASURE 5/8
|
||||
2,
|
||||
,
|
||||
,
|
||||
#MEASURE 5/4
|
||||
,
|
||||
|
||||
#MEASURE 5/8
|
||||
1,
|
||||
1,
|
||||
1,
|
||||
#MEASURE 7/8
|
||||
,
|
||||
#MEASURE 5/8
|
||||
1,
|
||||
1,
|
||||
1,
|
||||
#MEASURE 11/8
|
||||
7,
|
||||
#MEASURE 4/4
|
||||
8,
|
||||
|
||||
#MEASURE 3/4
|
||||
1,
|
||||
1,
|
||||
1,
|
||||
,
|
||||
1,
|
||||
1,
|
||||
#MEASURE 7/8
|
||||
0200200,
|
||||
2,
|
||||
|
||||
#MEASURE 3/4
|
||||
1,
|
||||
1,
|
||||
1,
|
||||
,
|
||||
#MEASURE 4/4
|
||||
11,
|
||||
11,
|
||||
|
||||
10050000,
|
||||
000000000000000008000000000000000000000000000000,
|
||||
10050000,
|
||||
#MEASURE 7/8
|
||||
000000000008000000000300000000000000000000,
|
||||
#MEASURE 7/16
|
||||
3,
|
||||
3,
|
||||
#MEASURE 21/16
|
||||
300000000000000600000000000000000000000000000000000000000000008,
|
||||
#MEASURE 4/4
|
||||
,
|
||||
|
||||
12,
|
||||
02,
|
||||
12,
|
||||
02,
|
||||
12,
|
||||
02,
|
||||
|
||||
1000000200001000,
|
||||
#MEASURE 5/8
|
||||
,
|
||||
#MEASURE 4/4
|
||||
1000000200001000,
|
||||
#MEASURE 5/8
|
||||
,
|
||||
|
||||
#MEASURE 4/4
|
||||
500000000000000000000000000000000000008000000000,
|
||||
#MEASURE 3/4
|
||||
,
|
||||
#MEASURE 4/4
|
||||
500000000000000000000000000000000000008000000000,
|
||||
#MEASURE 3/4
|
||||
,
|
||||
|
||||
#MEASURE 4/4
|
||||
7,
|
||||
,
|
||||
,
|
||||
000080000000000
|
||||
|
||||
#GOGOSTART
|
||||
1,
|
||||
|
||||
02,
|
||||
00202001,
|
||||
0220,
|
||||
0000200020000001,
|
||||
02,
|
||||
00202001,
|
||||
02,
|
||||
0222,
|
||||
|
||||
01002000,
|
||||
1120,
|
||||
1120,
|
||||
1120,
|
||||
30050000,
|
||||
000000000000000000000008000000000000000000000000,
|
||||
30050000,
|
||||
000000000000000000000008000000000000000000000000,
|
||||
|
||||
30020030,
|
||||
02003005,
|
||||
000000000000000000000000000000000000000000008000,
|
||||
|
||||
#GOGOEND
|
||||
,
|
||||
|
||||
1021,
|
||||
#MEASURE 5/8
|
||||
,
|
||||
#MEASURE 4/4
|
||||
1021,
|
||||
#MEASURE 5/8
|
||||
,
|
||||
#MEASURE 4/4
|
||||
1021,
|
||||
#MEASURE 5/8
|
||||
,
|
||||
|
||||
#GOGOSTART
|
||||
#MEASURE 4/4
|
||||
500000000000000000000000000008000000000000300000,
|
||||
#MEASURE 5/8
|
||||
,
|
||||
#MEASURE 4/4
|
||||
500000000000000000000000000008000000000000300000,
|
||||
#MEASURE 5/8
|
||||
,
|
||||
#MEASURE 4/4
|
||||
500000000000000000000000000000000000000800000000,
|
||||
500000000000000000000000000008000000000900000000,
|
||||
,
|
||||
,
|
||||
|
||||
#GOGOEND
|
||||
8,
|
||||
,
|
||||
,
|
||||
|
||||
#GOGOSTART
|
||||
30000003,
|
||||
|
||||
#GOGOEND
|
||||
,
|
||||
,
|
||||
,
|
||||
#END
|
||||
Reference in New Issue
Block a user