tja
This commit is contained in:
357
tja/1151.tja
Normal file
357
tja/1151.tja
Normal file
@@ -0,0 +1,357 @@
|
||||
TITLE:Trust・Last
|
||||
TITLEJA:Trust・Last
|
||||
SUBTITLE:--Kumi Koda × Shonan no Kaze / Kamen Rider Geats
|
||||
SUBTITLEJA:「仮面ライダーギーツ」より
|
||||
BPM:163
|
||||
WAVE:Trust Last.ogg
|
||||
OFFSET:-0.388
|
||||
DEMOSTART:39.018
|
||||
|
||||
COURSE:Oni
|
||||
LEVEL:5
|
||||
BALLOON:26,11,11,14
|
||||
SCOREINIT:
|
||||
SCOREDIFF:
|
||||
|
||||
#START
|
||||
11122110,
|
||||
11122110,
|
||||
|
||||
11102010,
|
||||
11201210,
|
||||
11102010,
|
||||
#MEASURE 3/4
|
||||
112010,
|
||||
#MEASURE 4/4
|
||||
1011101020001010,
|
||||
1011101020001010,
|
||||
22101010,
|
||||
11212221,
|
||||
|
||||
10201121,
|
||||
10201121,
|
||||
10201120,
|
||||
5,
|
||||
000000000000000000000008000000000000100000000000,
|
||||
10221011,
|
||||
1212,
|
||||
10221020,
|
||||
|
||||
11211021,
|
||||
11201020,
|
||||
11211021,
|
||||
11201020,
|
||||
7,
|
||||
0083,
|
||||
600000000000000000000000000000000000000000000008,
|
||||
00211121,
|
||||
|
||||
#BPMCHANGE 165
|
||||
12
|
||||
|
||||
#GOGOSTART
|
||||
31,
|
||||
1110202010102000,
|
||||
10104011,
|
||||
1110202010102000,
|
||||
1127,
|
||||
0000000080111010,
|
||||
20112120,
|
||||
11212020,
|
||||
|
||||
30002011,
|
||||
1110202010102000,
|
||||
10104011,
|
||||
1110202010102000,
|
||||
1147,
|
||||
00008110,
|
||||
10112120,
|
||||
11212022,
|
||||
|
||||
#GOGOEND
|
||||
2000
|
||||
|
||||
#GOGOSTART
|
||||
1011,
|
||||
20221011,
|
||||
20221011,
|
||||
2000202010010010,
|
||||
1000111020001010,
|
||||
1000111020001010,
|
||||
10201121,
|
||||
20201120,
|
||||
|
||||
#GOGOEND
|
||||
20202020
|
||||
|
||||
#GOGOSTART
|
||||
30001011,
|
||||
1010200011101011,
|
||||
11212011,
|
||||
7,
|
||||
|
||||
#GOGOEND
|
||||
8,
|
||||
,
|
||||
#END
|
||||
|
||||
COURSE:Hard
|
||||
LEVEL:3
|
||||
BALLOON:12,9,9,11
|
||||
SCOREINIT:
|
||||
SCOREDIFF:
|
||||
|
||||
#START
|
||||
11101010,
|
||||
11101010,
|
||||
|
||||
1022,
|
||||
10002220,
|
||||
1022,
|
||||
#MEASURE 3/4
|
||||
111020,
|
||||
#MEASURE 4/4
|
||||
10222010,
|
||||
10222010,
|
||||
1120,
|
||||
10102220,
|
||||
|
||||
1011,
|
||||
1011,
|
||||
1011,
|
||||
5,
|
||||
000000000000000000000008000000000000000000000000,
|
||||
10001011,
|
||||
1111,
|
||||
1022,
|
||||
|
||||
10111010,
|
||||
11101020,
|
||||
10111010,
|
||||
11101020,
|
||||
9009,
|
||||
8,
|
||||
600000000000000000000000000000000000000000000008,
|
||||
00101110,
|
||||
|
||||
#BPMCHANGE 165
|
||||
20
|
||||
|
||||
#GOGOSTART
|
||||
31,
|
||||
11101020,
|
||||
10104011,
|
||||
10111020,
|
||||
1127,
|
||||
08,
|
||||
20111020,
|
||||
11102020,
|
||||
|
||||
30001011,
|
||||
10111020,
|
||||
10104011,
|
||||
10111020,
|
||||
1147,
|
||||
08,
|
||||
20111020,
|
||||
11102020,
|
||||
|
||||
#GOGOEND
|
||||
2000
|
||||
|
||||
#GOGOSTART
|
||||
1011,
|
||||
10201011,
|
||||
10201011,
|
||||
12,
|
||||
10222010,
|
||||
10222010,
|
||||
20201110,
|
||||
20201110,
|
||||
|
||||
#GOGOEND
|
||||
0000
|
||||
#GOGOSTART
|
||||
3011,
|
||||
10201110,
|
||||
22202010,
|
||||
9009,
|
||||
|
||||
#GOGOEND
|
||||
8,
|
||||
,
|
||||
#END
|
||||
|
||||
COURSE:Normal
|
||||
LEVEL:2
|
||||
BALLOON:8,6,6,8
|
||||
SCOREINIT:
|
||||
SCOREDIFF:
|
||||
|
||||
#START
|
||||
11,
|
||||
1011,
|
||||
|
||||
12,
|
||||
02,
|
||||
12,
|
||||
#MEASURE 3/4
|
||||
,
|
||||
#MEASURE 4/4
|
||||
11,
|
||||
11,
|
||||
2,
|
||||
2,
|
||||
|
||||
11,
|
||||
1,
|
||||
11,
|
||||
5,
|
||||
000000000000000000000008000000000000000000000000,
|
||||
11,
|
||||
1,
|
||||
22,
|
||||
|
||||
1110,
|
||||
12,
|
||||
1110,
|
||||
12,
|
||||
9009,
|
||||
8,
|
||||
600000000000000000000000000000000000000000000008,
|
||||
,
|
||||
|
||||
#BPMCHANGE 165
|
||||
0
|
||||
|
||||
#GOGOSTART
|
||||
3,
|
||||
1011,
|
||||
14,
|
||||
1011,
|
||||
1027,
|
||||
08,
|
||||
1,
|
||||
11,
|
||||
|
||||
31,
|
||||
1110,
|
||||
14,
|
||||
1011,
|
||||
1047,
|
||||
08,
|
||||
1,
|
||||
11,
|
||||
|
||||
#GOGOEND
|
||||
20
|
||||
|
||||
#GOGOSTART
|
||||
11,
|
||||
1011,
|
||||
1011,
|
||||
12,
|
||||
1110,
|
||||
1110,
|
||||
2220,
|
||||
2220,
|
||||
|
||||
#GOGOEND
|
||||
0
|
||||
#GOGOSTART
|
||||
3,
|
||||
1011,
|
||||
1011,
|
||||
9009,
|
||||
|
||||
#GOGOEND
|
||||
8,
|
||||
,
|
||||
#END
|
||||
|
||||
COURSE:Easy
|
||||
LEVEL:1
|
||||
BALLOON:5,3,3,5
|
||||
SCOREINIT:
|
||||
SCOREDIFF:
|
||||
|
||||
#START
|
||||
1,
|
||||
1,
|
||||
|
||||
1,
|
||||
,
|
||||
1,
|
||||
#MEASURE 3/4
|
||||
,
|
||||
#MEASURE 4/4
|
||||
1,
|
||||
11,
|
||||
,
|
||||
2,
|
||||
|
||||
1,
|
||||
1,
|
||||
1,
|
||||
5,
|
||||
000000000000000000000008000000000000000000000000,
|
||||
1,
|
||||
1,
|
||||
2,
|
||||
|
||||
11,
|
||||
1,
|
||||
11,
|
||||
1,
|
||||
9009,
|
||||
8,
|
||||
600000000000000000000000000000000000000000000008,
|
||||
,
|
||||
|
||||
#BPMCHANGE 165
|
||||
0
|
||||
|
||||
#GOGOSTART
|
||||
3,
|
||||
01,
|
||||
1,
|
||||
11,
|
||||
1007,
|
||||
08,
|
||||
1,
|
||||
1,
|
||||
|
||||
3,
|
||||
11,
|
||||
1,
|
||||
11,
|
||||
1007,
|
||||
08,
|
||||
1,
|
||||
1,
|
||||
|
||||
#GOGOEND
|
||||
0
|
||||
|
||||
#GOGOSTART
|
||||
1,
|
||||
1,
|
||||
11,
|
||||
1,
|
||||
1,
|
||||
1,
|
||||
1,
|
||||
2,
|
||||
|
||||
#GOGOEND
|
||||
0
|
||||
#GOGOSTART
|
||||
3,
|
||||
01,
|
||||
11,
|
||||
9009,
|
||||
|
||||
#GOGOEND
|
||||
8,
|
||||
,
|
||||
#END
|
||||
Reference in New Issue
Block a user