This commit is contained in:
2026-03-04 23:59:27 +09:00
parent 6e0312f5b4
commit 4b4e2b8c98
1128 changed files with 668765 additions and 0 deletions

370
tja/1155.tja Normal file
View File

@@ -0,0 +1,370 @@
//TJADB Project
TITLE:American Patrol
TITLEJA:アメリカンパトロール
SUBTITLE:--Jesahm
BPM:200
WAVE:American Patrol.ogg
OFFSET:-2.807
DEMOSTART:23.998
COURSE:Oni
LEVEL:7
BALLOON:22
SCOREINIT:740
SCOREDIFF:170
#START
101000200303,
,
100200101202,
100200102202,
100200101202,
102202200000,
100202100200,
100202102200,
101200100200,
102201004000,
100200101202,
100200102202,
100200101202,
100100102000,
1122,
3344,
100202101000,
101201002200,
100202100202,
102102102202,
100202102102,
102002200300,
100202100202,
102102102202,
100200102102,
100202002200,
#GOGOSTART
100201102200,
202102002202,
100201102200,
101201002200,
100201102200,
202102002202,
100201102200,
101201002200,
#GOGOEND
7,
0008,
100100202103,
,
100200100202,
1212,
102202101202,
101201002200,
1212,
101200100200,
102202101202,
101205000008,
001000100111,
102001002001,
001000202011,
1102,
101200100200,
100000102001,
000000101002,
0033,
300200101201,
000200101200,
300200101203,
000200202200,
100200101202,
100200102202,
100200101202,
102202200000,
100202100200,
100202102200,
101200100200,
102201004000,
100200101202,
100200102202,
100200101202,
100100102000,
1122,
3344,
102101202100,
201102102100,
102101201100,
201102101100,
102101202101,
201102101102,
101000200303,
#END
COURSE:Hard
LEVEL:6
BALLOON:18
SCOREINIT:700
SCOREDIFF:190
#START
101000200303,
,
100100101100,
100200101100,
100100101101,
1,
100101100100,
200202200200,
101100100200,
104,
100100101100,
100200101100,
100100101101,
1,
1122,
1122,
100101101000,
202202000000,
1212,
101100000200,
100200101101,
1003,
1212,
101100000200,
100200101101,
1,
#GOGOSTART
100200102000,
101101000000,
100200102000,
100202002000,
100200102000,
101101000000,
100200102000,
202202000000,
#GOGOEND
7,
008,
100100101103,
,
1212,
1212,
101101101100,
101101000000,
1212,
101100100100,
101101101001,
101105000080,
010100,
102001002001,
050000,
8102,
101100100200,
100000102001,
000000101002,
0033,
300200000201,
0202,
300200000203,
,
100100101100,
100200101100,
100100101101,
102202200000,
100101100100,
200202200200,
101100100200,
104,
100100101101,
100200101101,
100100101101,
1,
1122,
1122,
101101101000,
202202202000,
101101101100,
101101101100,
101101101101,
101101101101,
101000000303,
#END
COURSE:Normal
LEVEL:4
BALLOON:10,10,7
SCOREINIT:860
SCOREDIFF:240
#START
#SCROLL 0.8
303000000303,
,
1110,
2220,
1111,
1,
1110,
2220,
1122,
1,
1110,
2220,
1111,
1,
1122,
1122,
11,
3,
1111,
1100,
2222,
2,
1111,
1100,
2222,
2,
#GOGOSTART
1120,
1100,
1120,
1200,
1120,
1100,
1120,
1200,
#GOGOEND
7,
008,
100100100003,
,
1202,
1202,
100500000008,
,
1202,
1202,
700000000008,
,
010100,
,
006000000800,
0300,
1122,
700000000008,
,
0033,
3006,
000000080000,
300000000303,
,
1110,
2220,
1111,
1,
1110,
2220,
1122,
1,
1110,
2220,
1111,
1,
1122,
1122,
12,
12,
1210,
1210,
1212,
1210,
303000000303,
#END
COURSE:Easy
LEVEL:4
BALLOON:8,8,6
SCOREINIT:760
SCOREDIFF:240
#START
#SCROLL 0.8
3003,
,
11,
22,
1110,
1,
3,
4,
1110,
1,
11,
22,
1110,
1,
1110,
1110,
11,
3,
11,
1,
1011,
1,
11,
1,
1011,
1,
#GOGOSTART
12,
1100,
12,
1,
12,
1100,
12,
1,
#GOGOEND
7,
008,
300000300003,
,
1202,
0202,
500000000008,
,
1202,
0202,
700000000008,
,
050080,
,
060080,
0300,
1110,
700000000008,
,
0033,
3006,
000000080000,
300000000303,
,
11,
22,
1110,
1,
3,
4,
1110,
1,
11,
22,
1110,
1,
1110,
1110,
12,
12,
11,
2220,
11,
2220,
100000000303,
#END