tja
This commit is contained in:
344
tja/116.tja
Normal file
344
tja/116.tja
Normal file
@@ -0,0 +1,344 @@
|
||||
//TJADB Project
|
||||
TITLE:Dragon Ball Heroes Evil Dragon Mission Series Theme Song
|
||||
TITLEJA:ドラゴンボールヒーローズ 邪悪龍ミッションシリーズ テーマソング
|
||||
SUBTITLE:--Dragon Soul/Dragon Ball Heroes
|
||||
BPM:89
|
||||
WAVE:Dragon Ball Heroes Evil Dragon Mission Series Theme Song.ogg
|
||||
OFFSET:-2.918
|
||||
DEMOSTART:60.249
|
||||
|
||||
COURSE:Oni
|
||||
LEVEL:6
|
||||
BALLOON:15,10
|
||||
SCOREINIT:700
|
||||
SCOREDIFF:190
|
||||
|
||||
|
||||
#START
|
||||
|
||||
|
||||
100222200200100000200200,
|
||||
100222200111100100101010,
|
||||
100000202020200000200000200000000000100100100700,
|
||||
#MEASURE 6/4
|
||||
00
|
||||
#BPMCHANGE 178.29
|
||||
8033,//4
|
||||
|
||||
#MEASURE 4/4
|
||||
#GOGOSTART
|
||||
#BPMCHANGE 178
|
||||
3000200011102010,
|
||||
01203030,
|
||||
3000202011102010,
|
||||
0010201110102000,
|
||||
1110222011102220,
|
||||
33033040,
|
||||
6,
|
||||
000000000000000000000008000000000000000000000000,//12
|
||||
|
||||
#GOGOEND
|
||||
1000201000221000,
|
||||
10121010,
|
||||
10121010,
|
||||
10121010,
|
||||
10121020,
|
||||
10121010,
|
||||
10121020,
|
||||
7008,
|
||||
1022201000102220,
|
||||
11211122,
|
||||
11210121,
|
||||
11210121,
|
||||
11210120,
|
||||
11211122,
|
||||
11210121,
|
||||
11210033,
|
||||
300000300300202020101010,
|
||||
10200120,
|
||||
11200120,
|
||||
11200120,
|
||||
11210120,
|
||||
11201121,
|
||||
01201120,
|
||||
1000222010002220,
|
||||
1000222010002220,
|
||||
34434430,
|
||||
44403030,//39
|
||||
|
||||
#GOGOSTART
|
||||
3000200011102010,
|
||||
01203030,
|
||||
3000202011102010,
|
||||
0010201110102000,
|
||||
1110222011102220,
|
||||
1110222011102220,
|
||||
30330303,
|
||||
0044,
|
||||
3000200011102010,
|
||||
01203030,
|
||||
3000202011102010,
|
||||
0010201110102000,
|
||||
1110222011102220,
|
||||
33033040,
|
||||
6,
|
||||
,
|
||||
000000000000000000000000000000000000000008000000,
|
||||
,
|
||||
10221201,
|
||||
01210120,
|
||||
10221202,
|
||||
0022201110200000,//61
|
||||
|
||||
#GOGOEND
|
||||
3,
|
||||
|
||||
|
||||
#END
|
||||
|
||||
|
||||
COURSE:Hard
|
||||
LEVEL:3
|
||||
BALLOON:12,12,8,30
|
||||
|
||||
#START
|
||||
11,
|
||||
1110,
|
||||
1000000010001117,
|
||||
#MEASURE 6/4
|
||||
00
|
||||
#BPMCHANGE 178
|
||||
8033,//4
|
||||
|
||||
#MEASURE 4/4
|
||||
#GOGOSTART
|
||||
30201021,
|
||||
01203030,
|
||||
30201021,
|
||||
01201000,
|
||||
11201120,
|
||||
33033040,
|
||||
9,
|
||||
09,//12
|
||||
|
||||
#GOGOEND
|
||||
8,
|
||||
1111,
|
||||
1111,
|
||||
10110110,
|
||||
10110110,
|
||||
2222,
|
||||
20220220,
|
||||
7,
|
||||
8,
|
||||
10201120,
|
||||
10210120,
|
||||
10210120,
|
||||
10220220,
|
||||
10201120,
|
||||
10210120,
|
||||
10210033,
|
||||
30330000,
|
||||
12,
|
||||
11002000,
|
||||
11002000,
|
||||
10110110,
|
||||
10201121,
|
||||
01201020,
|
||||
10221022,
|
||||
10221020,
|
||||
30030030,
|
||||
44403030,//39
|
||||
|
||||
#GOGOSTART
|
||||
30201021,
|
||||
01203030,
|
||||
30201021,
|
||||
01201000,
|
||||
11201120,
|
||||
12201220,
|
||||
30330303,
|
||||
0044,
|
||||
30201021,
|
||||
01203030,
|
||||
30201021,
|
||||
01201000,
|
||||
11201120,
|
||||
33033040,
|
||||
9,
|
||||
,
|
||||
0900,
|
||||
8,
|
||||
10221101,
|
||||
01210120,
|
||||
10221102,
|
||||
02121200,//61
|
||||
|
||||
#GOGOEND
|
||||
3,
|
||||
,
|
||||
#END
|
||||
|
||||
COURSE:Normal
|
||||
LEVEL:3
|
||||
BALLOON:9,11,6,24
|
||||
|
||||
#START
|
||||
11,
|
||||
1110,
|
||||
1000000010001007,
|
||||
#MEASURE 6/4
|
||||
00
|
||||
#BPMCHANGE 178
|
||||
8033,//4
|
||||
|
||||
#MEASURE 4/4
|
||||
#GOGOSTART
|
||||
6,
|
||||
000008000000000000000000300000000000300000000000,
|
||||
6,
|
||||
000000000000000000000008000000000000000000000000,
|
||||
1212,
|
||||
33033040,
|
||||
9,
|
||||
09,//12
|
||||
|
||||
#GOGOEND
|
||||
8,
|
||||
11,
|
||||
1110,
|
||||
11,
|
||||
1110,
|
||||
22,
|
||||
2220,
|
||||
7,
|
||||
8,
|
||||
11,
|
||||
1110,
|
||||
11,
|
||||
1110,
|
||||
22,
|
||||
2220,
|
||||
20000033,
|
||||
30330000,
|
||||
12,
|
||||
11002000,
|
||||
11002000,
|
||||
1,
|
||||
1110,
|
||||
1110,
|
||||
1212,
|
||||
1212,
|
||||
500000000000000000000000000000000000000000000008,
|
||||
0033,//39
|
||||
|
||||
#GOGOSTART
|
||||
6,
|
||||
000008000000000000000000300000000000300000000000,
|
||||
6,
|
||||
000000000000000000000008000000000000000000000000,
|
||||
1212,
|
||||
1212,
|
||||
30330303,
|
||||
0044,
|
||||
6,
|
||||
000008000000000000000000300000000000300000000000,
|
||||
6,
|
||||
000000000000000000000008000000000000000000000000,
|
||||
1212,
|
||||
33033040,
|
||||
9,
|
||||
,
|
||||
0900,
|
||||
8,
|
||||
11,
|
||||
1110,
|
||||
10001005,
|
||||
000000000000000000000000000008000000000000000000,//61
|
||||
|
||||
#GOGOEND
|
||||
3,
|
||||
,
|
||||
#END
|
||||
|
||||
COURSE:Easy
|
||||
LEVEL:2
|
||||
BALLOON:5,8,4,18
|
||||
|
||||
#START
|
||||
11,
|
||||
1110,
|
||||
1000000010001007,
|
||||
#MEASURE 6/4
|
||||
0
|
||||
#BPMCHANGE 178
|
||||
83,//4
|
||||
|
||||
#MEASURE 4/4
|
||||
#GOGOSTART
|
||||
6,
|
||||
000008000000000000000000300000000000000000000000,
|
||||
6,
|
||||
000000000000000000000008000000000000000000000000,
|
||||
11,
|
||||
30030030,
|
||||
9,
|
||||
09,//12
|
||||
|
||||
#GOGOEND
|
||||
8,
|
||||
11,
|
||||
1011,
|
||||
500000000000000000000000000000000000000000000008,
|
||||
,
|
||||
22,
|
||||
2022,
|
||||
7,
|
||||
8,
|
||||
11,
|
||||
1011,
|
||||
500000000000000000000000000000000000000000000008,
|
||||
,
|
||||
22,
|
||||
2022,
|
||||
2,
|
||||
3,
|
||||
1,
|
||||
1,
|
||||
11,
|
||||
1,
|
||||
11,
|
||||
1011,
|
||||
11,
|
||||
1011,
|
||||
500000000000000000000000000000000000000000000008,
|
||||
03,//39
|
||||
|
||||
#GOGOSTART
|
||||
6,
|
||||
000008000000000000000000300000000000000000000000,
|
||||
6,
|
||||
000000000000000000000008000000000000000000000000,
|
||||
11,
|
||||
22,
|
||||
30300003,
|
||||
04,
|
||||
6,
|
||||
000008000000000000000000300000000000000000000000,
|
||||
6,
|
||||
000000000000000000000008000000000000000000000000,
|
||||
11,
|
||||
30030030,
|
||||
9,
|
||||
,
|
||||
0900,
|
||||
8,
|
||||
11,
|
||||
,
|
||||
10001005,
|
||||
000000000000000000000000000008000000000000000000,//61
|
||||
|
||||
#GOGOEND
|
||||
3,
|
||||
,
|
||||
#END
|
||||
Reference in New Issue
Block a user