tja
This commit is contained in:
314
tja/1178.tja
Normal file
314
tja/1178.tja
Normal file
@@ -0,0 +1,314 @@
|
||||
//TJADB Project
|
||||
TITLE:Watashi no Ichiban Kawaii Tokoro
|
||||
TITLEJA:わたしの一番かわいいところ
|
||||
SUBTITLE:--FRUITS ZIPPER
|
||||
SUBTITLEJA:FRUITS ZIPPER
|
||||
BPM:128
|
||||
WAVE:Watashi no Ichiban Kawaii Tokoro.ogg
|
||||
OFFSET:-3.832
|
||||
DEMOSTART:52.103
|
||||
|
||||
//Shinuchi score: 11630/7250/3750/2600
|
||||
|
||||
COURSE:Oni
|
||||
LEVEL:7
|
||||
BALLOON:13,13,19
|
||||
SCOREINIT:830,2780
|
||||
SCOREDIFF:230
|
||||
|
||||
#START
|
||||
1001010120000000,
|
||||
|
||||
3000000000102100,
|
||||
4000000000100100,
|
||||
4000000000102100,
|
||||
4000000022201220,
|
||||
|
||||
1010202102012020,
|
||||
1010202101012020,
|
||||
1010202102012210,
|
||||
3, //9
|
||||
|
||||
2000000200102101,
|
||||
2000000200102100,
|
||||
1000202102102120,
|
||||
1010201020110120,
|
||||
|
||||
2000000200102101,
|
||||
2000000200102100,
|
||||
1202101120102011,
|
||||
2022102100112000, //17
|
||||
|
||||
1010202210112022,
|
||||
7008,
|
||||
1220112010210122,
|
||||
1010202110210210,
|
||||
|
||||
1011202012021020,
|
||||
7000000000008022,
|
||||
1012021040000000,
|
||||
700000000000000000000000000000000000000000000008,
|
||||
00333000, //26
|
||||
|
||||
#GOGOSTART
|
||||
1110220210112020,
|
||||
1010220211202000,
|
||||
1110202030003000,
|
||||
1010220211202000,
|
||||
|
||||
1111202011112020,
|
||||
1010220211202102,
|
||||
1010210210102200,
|
||||
500000000000000000000008000000000000000000000000, //34
|
||||
|
||||
1011202210222020,
|
||||
1011202210202000,
|
||||
1011202210222020,
|
||||
1011202210202000,
|
||||
|
||||
1011202210222020,
|
||||
1011202210202010,
|
||||
500000000000000000000000000008000000100000000000,
|
||||
1110111120002000, //42
|
||||
#GOGOEND
|
||||
|
||||
3000000000102100,
|
||||
4000000000100100,
|
||||
4000000000102100,
|
||||
4000000022201220,
|
||||
|
||||
1010202102012020,
|
||||
1010202101012020,
|
||||
1010202102012210,
|
||||
300200221100,
|
||||
0,
|
||||
0, //52
|
||||
#END
|
||||
|
||||
|
||||
COURSE:Hard
|
||||
LEVEL:5
|
||||
BALLOON:11,11,17,28
|
||||
SCOREINIT:910,4130
|
||||
SCOREDIFF:268
|
||||
|
||||
#START
|
||||
1001010020000000,
|
||||
|
||||
3000000000101100,
|
||||
4000000000100100,
|
||||
4000000000101100,
|
||||
4000000022200200,
|
||||
|
||||
1010200100102000,
|
||||
1010200100102000,
|
||||
1010200100102000,
|
||||
3, //9
|
||||
|
||||
2000100100101000,
|
||||
2000100100101000,
|
||||
1000101100101000,
|
||||
11212000,
|
||||
|
||||
2000100100101000,
|
||||
2000100100101000,
|
||||
1100101100101000,
|
||||
500000000000000000000000000008000000000000000000, //17
|
||||
|
||||
11201120,
|
||||
7008,
|
||||
2000100010010000,
|
||||
1010100010010000,
|
||||
|
||||
1010100011011000,
|
||||
7008,
|
||||
1011011040000000,
|
||||
700000000000000000000000000000000000000000000008,
|
||||
00333000, //26
|
||||
|
||||
#GOGOSTART
|
||||
1010220100102000,
|
||||
1010220100202000,
|
||||
1010202030003000,
|
||||
1010220100202000,
|
||||
|
||||
11221120,
|
||||
1010220200007000,
|
||||
0,
|
||||
000000000000000000080000000000000000000000000000, //34
|
||||
|
||||
1010202010222020,
|
||||
11221220,
|
||||
1010202010222020,
|
||||
11221220,
|
||||
|
||||
1010202010222020,
|
||||
11221221,
|
||||
500000000000000000000000000008000000000000000000,
|
||||
1010111020002000, //42
|
||||
#GOGOEND
|
||||
|
||||
3000000000101100,
|
||||
4000000000100100,
|
||||
4000000000101100,
|
||||
4000000022200200,
|
||||
|
||||
1010200100102000,
|
||||
1010200100202000,
|
||||
1010200100102220,
|
||||
3,
|
||||
0,
|
||||
0, //52
|
||||
#END
|
||||
|
||||
|
||||
COURSE:Normal
|
||||
LEVEL:3
|
||||
BALLOON:9,9,11,18
|
||||
SCOREINIT:1170,8280
|
||||
SCOREDIFF:550
|
||||
|
||||
#START
|
||||
12,
|
||||
|
||||
3000000000100100,
|
||||
4000000000100100,
|
||||
4000000000100100,
|
||||
4,
|
||||
|
||||
1120,
|
||||
1120,
|
||||
1122,
|
||||
3, //9
|
||||
|
||||
2000000200000000,
|
||||
2000000200000000,
|
||||
1002,
|
||||
12,
|
||||
|
||||
2000000200000000,
|
||||
2000000200000000,
|
||||
1002,
|
||||
500000000000000000000000000008000000000000000000, //17
|
||||
|
||||
1212,
|
||||
7008,
|
||||
2121,
|
||||
11,
|
||||
|
||||
1212,
|
||||
7008,
|
||||
2140,
|
||||
900000000000000000000000000000000009000000000008,
|
||||
0, //26
|
||||
|
||||
#GOGOSTART
|
||||
1122,
|
||||
1210,
|
||||
2233,
|
||||
1210,
|
||||
|
||||
1122,
|
||||
1217,
|
||||
0,
|
||||
000000000000000000080000000000000000000000000000, //34
|
||||
|
||||
1212,
|
||||
1120,
|
||||
1122,
|
||||
1220,
|
||||
|
||||
1212,
|
||||
1120,
|
||||
500000000000000000000000000008000000000000000000,
|
||||
1120, //42
|
||||
#GOGOEND
|
||||
|
||||
3000000000100100,
|
||||
4000000000100100,
|
||||
4000000000100100,
|
||||
4,
|
||||
|
||||
1120,
|
||||
1120,
|
||||
1122,
|
||||
3,
|
||||
0,
|
||||
0, //52
|
||||
#END
|
||||
|
||||
|
||||
COURSE:Easy
|
||||
LEVEL:2
|
||||
BALLOON:7,7,9,15
|
||||
SCOREINIT:1200,13810
|
||||
SCOREDIFF:915
|
||||
|
||||
#START
|
||||
0,
|
||||
|
||||
3,
|
||||
4,
|
||||
4,
|
||||
4,
|
||||
|
||||
12,
|
||||
12,
|
||||
12,
|
||||
3, //9
|
||||
|
||||
2,
|
||||
2,
|
||||
1,
|
||||
22,
|
||||
|
||||
2,
|
||||
2,
|
||||
1,
|
||||
500000000000000000000000000008000000000000000000, //17
|
||||
|
||||
11,
|
||||
7008,
|
||||
1110,
|
||||
11,
|
||||
|
||||
22,
|
||||
7008,
|
||||
24,
|
||||
900000000000000000000000000000000009000000000008,
|
||||
0, //26
|
||||
|
||||
#GOGOSTART
|
||||
12,
|
||||
11,
|
||||
21,
|
||||
500000000000000000000000000008000000000000000000,
|
||||
|
||||
12,
|
||||
1017,
|
||||
0,
|
||||
000000000000000000080000000000000000000000000000, //34
|
||||
|
||||
1110,
|
||||
2220,
|
||||
1110,
|
||||
2220,
|
||||
|
||||
1110,
|
||||
2220,
|
||||
500000000000000000000000000008000000000000000000,
|
||||
1110, //42
|
||||
#GOGOEND
|
||||
|
||||
3,
|
||||
4,
|
||||
4,
|
||||
4,
|
||||
|
||||
12,
|
||||
12,
|
||||
12,
|
||||
3,
|
||||
0,
|
||||
0, //52
|
||||
#END
|
||||
Reference in New Issue
Block a user