tja
This commit is contained in:
357
tja/1179.tja
Normal file
357
tja/1179.tja
Normal file
@@ -0,0 +1,357 @@
|
||||
//TJADB Project
|
||||
TITLE:Harudion
|
||||
TITLEJA:ハルジオン
|
||||
SUBTITLE:--Maou Damashii
|
||||
SUBTITLEJA:魔王魂
|
||||
BPM:152
|
||||
WAVE:Harudion.ogg
|
||||
OFFSET:-1.988
|
||||
DEMOSTART:50.933
|
||||
|
||||
|
||||
COURSE:Oni
|
||||
LEVEL:8
|
||||
BALLOON:13,7
|
||||
SCOREINIT:2090
|
||||
SCOREDIFF:0
|
||||
|
||||
#START
|
||||
0,
|
||||
0,
|
||||
000000000000000111100000,
|
||||
|
||||
1120102010002220,
|
||||
1120102010220020,
|
||||
1120102010002010,
|
||||
1020202010211000, //7
|
||||
|
||||
1120102010002220,
|
||||
1120102010220020,
|
||||
1120102010002010,
|
||||
100100100000200000200200100000202020200000000000,
|
||||
|
||||
1022201010022020,
|
||||
1110100020222020,
|
||||
1011101110102020,
|
||||
1020102010222020, //15
|
||||
|
||||
1022201010022020,
|
||||
1110100020222020,
|
||||
1011201110112020,
|
||||
500000000000000000000000000008000000000000000000,
|
||||
|
||||
1120102010002220,
|
||||
1120102010220020,
|
||||
1120102010002010,
|
||||
1110202210202020, //23
|
||||
|
||||
1022201010022020,
|
||||
1110100020222020,
|
||||
1011101110102020,
|
||||
1002102010222020,
|
||||
|
||||
1022201010222020,
|
||||
1110100020222020,
|
||||
1111102011111020,
|
||||
70000800, //31
|
||||
|
||||
#GOGOSTART
|
||||
1110112010001110,
|
||||
1120100011112020,
|
||||
1010201121201011,
|
||||
2120102222112210,
|
||||
|
||||
1110112010001110,
|
||||
1120100020112022,
|
||||
1010202121102021,
|
||||
2110700000800000, //39
|
||||
|
||||
1110112010001110,
|
||||
1120100011112020,
|
||||
1010201121201011,
|
||||
2120102222112210,
|
||||
|
||||
1110112010001110,
|
||||
1120100020112022,
|
||||
1010202121102021,
|
||||
2110102222202020, //47
|
||||
#GOGOEND
|
||||
|
||||
1120102010002220,
|
||||
1120102010220020,
|
||||
1120102010002010,
|
||||
1020202010211000,
|
||||
|
||||
1120102010002220,
|
||||
1120102010220020,
|
||||
1120102010002010,
|
||||
#BPMCHANGE 150
|
||||
#SCROLL 1.01
|
||||
11102022
|
||||
#BPMCHANGE 144
|
||||
#SCROLL 1.05
|
||||
10202020,
|
||||
0,
|
||||
0, //57
|
||||
#END
|
||||
|
||||
|
||||
COURSE:Hard
|
||||
LEVEL:5
|
||||
BALLOON:9,5,36
|
||||
SCOREINIT:3300
|
||||
SCOREDIFF:0
|
||||
|
||||
#START
|
||||
0,
|
||||
0,
|
||||
0,
|
||||
|
||||
11101011,
|
||||
12121020,
|
||||
11101010,
|
||||
1020202010222000, //7
|
||||
|
||||
11101011,
|
||||
12121020,
|
||||
11101010,
|
||||
1010202010222000,
|
||||
|
||||
10111012,
|
||||
1010100000222020,
|
||||
10111012,
|
||||
10101222, //15
|
||||
|
||||
10111012,
|
||||
1010100000222020,
|
||||
10111010,
|
||||
500000000000000000000000000008000000000000000000,
|
||||
|
||||
11101011,
|
||||
12121020,
|
||||
11101010,
|
||||
11221222, //23
|
||||
|
||||
10111012,
|
||||
1010100000222020,
|
||||
10111011,
|
||||
2002002020222000,
|
||||
|
||||
10111012,
|
||||
1010100000222020,
|
||||
11121112,
|
||||
70000800, //31
|
||||
|
||||
#GOGOSTART
|
||||
1110102010001110,
|
||||
12102120,
|
||||
1000101110001011,
|
||||
11122010,
|
||||
|
||||
1110102010001110,
|
||||
12102120,
|
||||
1000101110001011,
|
||||
11700800, //39
|
||||
|
||||
1110102010001110,
|
||||
12102120,
|
||||
1000101110001011,
|
||||
11122010,
|
||||
|
||||
1110102010001110,
|
||||
12102120,
|
||||
1000101110001011,
|
||||
11100222, //47
|
||||
#GOGOEND
|
||||
|
||||
9,
|
||||
00000009,
|
||||
08,
|
||||
0,
|
||||
|
||||
11101011,
|
||||
12121020,
|
||||
11101010,
|
||||
#BPMCHANGE 150
|
||||
#SCROLL 1.01
|
||||
1122
|
||||
#BPMCHANGE 144
|
||||
#SCROLL 1.05
|
||||
1222,
|
||||
0,
|
||||
0, //57
|
||||
#END
|
||||
|
||||
|
||||
COURSE:Normal
|
||||
LEVEL:5
|
||||
BALLOON:6,4,24
|
||||
SCOREINIT:4590
|
||||
SCOREDIFF:0
|
||||
|
||||
#START
|
||||
0,
|
||||
0,
|
||||
0,
|
||||
|
||||
11101010,
|
||||
11101000,
|
||||
11101010,
|
||||
20202220, //7
|
||||
|
||||
11101010,
|
||||
11101000,
|
||||
11101010,
|
||||
22222000,
|
||||
|
||||
10011010,
|
||||
11100020,
|
||||
10011010,
|
||||
1112, //15
|
||||
|
||||
10011010,
|
||||
11100020,
|
||||
11101010,
|
||||
500000000000000000000000000008000000000000000000,
|
||||
|
||||
11101010,
|
||||
11101000,
|
||||
11101010,
|
||||
22222000, //23
|
||||
|
||||
10011010,
|
||||
11100020,
|
||||
10011010,
|
||||
2002002020000000,
|
||||
|
||||
10011010,
|
||||
11100020,
|
||||
10101110,
|
||||
70000800, //31
|
||||
|
||||
#GOGOSTART
|
||||
11111011,
|
||||
11102020,
|
||||
10111011,
|
||||
02222000,
|
||||
|
||||
11111011,
|
||||
11102020,
|
||||
10111011,
|
||||
01700800, //39
|
||||
|
||||
11111011,
|
||||
11102020,
|
||||
10111011,
|
||||
02202000,
|
||||
|
||||
11111011,
|
||||
11102020,
|
||||
10111011,
|
||||
01100020, //47
|
||||
#GOGOEND
|
||||
|
||||
9,
|
||||
00000009,
|
||||
08,
|
||||
0,
|
||||
|
||||
11101010,
|
||||
11101000,
|
||||
11101010,
|
||||
#BPMCHANGE 150
|
||||
#SCROLL 1.01
|
||||
2222
|
||||
#BPMCHANGE 144
|
||||
#SCROLL 1.05
|
||||
2000,
|
||||
0,
|
||||
0, //57
|
||||
#END
|
||||
|
||||
|
||||
COURSE:Easy
|
||||
LEVEL:3
|
||||
BALLOON:5,6,18
|
||||
SCOREINIT:8580
|
||||
SCOREDIFF:0
|
||||
|
||||
#START
|
||||
0,
|
||||
0,
|
||||
0,
|
||||
|
||||
1110,
|
||||
1110,
|
||||
1110,
|
||||
22, //7
|
||||
|
||||
1110,
|
||||
1110,
|
||||
1110,
|
||||
2220,
|
||||
|
||||
11,
|
||||
1100,
|
||||
11,
|
||||
1110, //15
|
||||
|
||||
11,
|
||||
1100,
|
||||
11,
|
||||
500000000000000000000000000008000000000000000000,
|
||||
|
||||
1110,
|
||||
1110,
|
||||
1110,
|
||||
2220, //23
|
||||
|
||||
11,
|
||||
1100,
|
||||
11,
|
||||
22,
|
||||
|
||||
11,
|
||||
1100,
|
||||
1111,
|
||||
70000800, //31
|
||||
|
||||
#GOGOSTART
|
||||
1120,
|
||||
1120,
|
||||
10101005,
|
||||
000000000000000000000000000008000000000000000000,
|
||||
|
||||
1120,
|
||||
1120,
|
||||
10101007,
|
||||
00000800, //39
|
||||
|
||||
1120,
|
||||
1120,
|
||||
10101005,
|
||||
000000000000000000000000000008000000000000000000,
|
||||
|
||||
1120,
|
||||
1120,
|
||||
1110,
|
||||
1100, //47
|
||||
#GOGOEND
|
||||
|
||||
9,
|
||||
00000009,
|
||||
08,
|
||||
0,
|
||||
|
||||
1110,
|
||||
1110,
|
||||
1110,
|
||||
#BPMCHANGE 150
|
||||
#SCROLL 1.01
|
||||
22
|
||||
#BPMCHANGE 144
|
||||
#SCROLL 1.05
|
||||
20,
|
||||
0,
|
||||
0, //57
|
||||
#END
|
||||
Reference in New Issue
Block a user