tja
This commit is contained in:
366
tja/1191.tja
Normal file
366
tja/1191.tja
Normal file
@@ -0,0 +1,366 @@
|
||||
//TJADB Project
|
||||
TITLE:Shukufuku
|
||||
TITLEJA:祝福
|
||||
SUBTITLE:--Mobile Suit Gundam: Witch of Mercury
|
||||
SUBTITLEJA:「機動戦士ガンダム 水星の魔女」より
|
||||
BPM:170
|
||||
WAVE:Shukufuku.ogg
|
||||
OFFSET:-1.511
|
||||
DEMOSTART:51.452
|
||||
|
||||
//Shinuchi score: 10170/4600/2730/1900
|
||||
|
||||
COURSE:Oni
|
||||
LEVEL:8
|
||||
BALLOON:13,13,12
|
||||
SCOREINIT:640,1980
|
||||
SCOREDIFF:163
|
||||
|
||||
#START
|
||||
12,
|
||||
0120,
|
||||
1120,
|
||||
0120,
|
||||
|
||||
12121212,
|
||||
1022102010221020,
|
||||
1022102210221120,
|
||||
0001, //8
|
||||
|
||||
2010201120121020,
|
||||
1011102010111020,
|
||||
1110202120121030,
|
||||
0000300030001111,
|
||||
|
||||
1010100011101000,
|
||||
1010100011101000,
|
||||
70000008,
|
||||
2010200010201011, //16
|
||||
|
||||
2010100011101000,
|
||||
2010100011101000,
|
||||
2010100011101000,
|
||||
2010101021102110,
|
||||
|
||||
2010101011202000,
|
||||
2010101021101000,
|
||||
2010101011202000,
|
||||
2010101021101010, //24
|
||||
|
||||
2010101011202010,
|
||||
2010101021101010,
|
||||
2011101110101070,
|
||||
0008,
|
||||
|
||||
1010112000102110,
|
||||
0010211000101120,
|
||||
0010112000102110,
|
||||
0010211000112211,
|
||||
|
||||
1010112010102110,
|
||||
1010211010101120,
|
||||
700000000000000008000300,
|
||||
02200000, //36
|
||||
|
||||
#GOGOSTART
|
||||
1022101120101011,
|
||||
2011201110202011,
|
||||
1022101120101011,
|
||||
1011102210202011,
|
||||
|
||||
1022101120101011,
|
||||
2011201110202011,
|
||||
1022101120111011,
|
||||
2022201110111111, //44
|
||||
|
||||
1022101120101011,
|
||||
2011201110202011,
|
||||
1022102010221020,
|
||||
1022102010221020,
|
||||
|
||||
1022102210221022,
|
||||
1022112210221122,
|
||||
1022202210222022,
|
||||
100000100000100000000000500000000000000008000000,
|
||||
#GOGOEND
|
||||
3,
|
||||
33, //54
|
||||
|
||||
2010202120121020,
|
||||
1011102010111020,
|
||||
1110202120121020,
|
||||
1011102010111022,
|
||||
|
||||
1110202120121020,
|
||||
1011102010111020,
|
||||
1110202120121040,
|
||||
01140111,
|
||||
0, //63
|
||||
#END
|
||||
|
||||
|
||||
COURSE:Hard
|
||||
LEVEL:6
|
||||
BALLOON:10,10,10,9,10
|
||||
SCOREINIT:720,2900
|
||||
SCOREDIFF:190
|
||||
|
||||
#START
|
||||
12,
|
||||
0120,
|
||||
1120,
|
||||
0120,
|
||||
|
||||
12101210,
|
||||
12101210,
|
||||
1020102010111010,
|
||||
0001, //8
|
||||
|
||||
2010200020111010,
|
||||
01120112,
|
||||
1010200020111030,
|
||||
0330,
|
||||
|
||||
1000100011101000,
|
||||
1000100011101000,
|
||||
70000008,
|
||||
20201011, //16
|
||||
|
||||
2000100011101000,
|
||||
2000100011101000,
|
||||
2000100011101000,
|
||||
2010101010101110,
|
||||
|
||||
1000200011102000,
|
||||
1000200011102000,
|
||||
70000008,
|
||||
1000200011102000, //24
|
||||
|
||||
1000200011102000,
|
||||
1000200011102000,
|
||||
1010101110101070,
|
||||
0008,
|
||||
|
||||
11120121,
|
||||
01210112,
|
||||
02110121,
|
||||
0020101000102011,
|
||||
|
||||
11121121,
|
||||
11211112,
|
||||
700000000000000008000300,
|
||||
02200000, //36
|
||||
|
||||
#GOGOSTART
|
||||
10121012,
|
||||
12101122,
|
||||
10121012,
|
||||
12101122,
|
||||
|
||||
10121012,
|
||||
12101122,
|
||||
70000008,
|
||||
2000101010111011, //44
|
||||
|
||||
10121112,
|
||||
10121122,
|
||||
12101210,
|
||||
12101210,
|
||||
|
||||
12121212,
|
||||
12121212,
|
||||
1022200010222000,
|
||||
200000100000100000000000500000000000000008000000,
|
||||
#GOGOEND
|
||||
3,
|
||||
33, //54
|
||||
|
||||
2010200020111010,
|
||||
01120112,
|
||||
1010200020111010,
|
||||
01120112,
|
||||
|
||||
2010201020111010,
|
||||
01120112,
|
||||
1010201020111040,
|
||||
01140111,
|
||||
0, //63
|
||||
#END
|
||||
|
||||
|
||||
COURSE:Normal
|
||||
LEVEL:5
|
||||
BALLOON:7,7,7,7,8
|
||||
SCOREINIT:890,4950
|
||||
SCOREDIFF:278
|
||||
|
||||
#START
|
||||
12,
|
||||
0120,
|
||||
1120,
|
||||
0120,
|
||||
|
||||
10101110,
|
||||
10101110,
|
||||
10101011,
|
||||
0, //8
|
||||
|
||||
20101011,
|
||||
000000100000100000500000000000000008000000000000,
|
||||
20202003,
|
||||
0330,
|
||||
|
||||
1110,
|
||||
1110,
|
||||
70000008,
|
||||
2210, //16
|
||||
|
||||
2011,
|
||||
2011,
|
||||
2011,
|
||||
500000000000000000000000000000000008000000000000,
|
||||
|
||||
20202220,
|
||||
22,
|
||||
70000008,
|
||||
22, //24
|
||||
|
||||
2211,
|
||||
2211,
|
||||
20101117,
|
||||
0008,
|
||||
|
||||
10110011,
|
||||
00110022,
|
||||
00110022,
|
||||
00110110,
|
||||
|
||||
1212,
|
||||
1212,
|
||||
70000008,
|
||||
0, //36
|
||||
|
||||
#GOGOSTART
|
||||
10111010,
|
||||
10102220,
|
||||
10111010,
|
||||
10102220,
|
||||
|
||||
10111010,
|
||||
10101110,
|
||||
9009,
|
||||
8, //44
|
||||
|
||||
10111010,
|
||||
10111010,
|
||||
1122,
|
||||
1122,
|
||||
|
||||
11102020,
|
||||
11102020,
|
||||
11102220,
|
||||
100000100000100000000000500000000000000008000000,
|
||||
#GOGOEND
|
||||
3,
|
||||
33, //54
|
||||
|
||||
20202011,
|
||||
000000100000100000500000000000000008000000000000,
|
||||
20202011,
|
||||
000000100000100000500000000000000008000000000000,
|
||||
|
||||
10102011,
|
||||
000000100000100000500000000000000008000000000000,
|
||||
10102004,
|
||||
00040111,
|
||||
0, //63
|
||||
#END
|
||||
|
||||
|
||||
COURSE:Easy
|
||||
LEVEL:3
|
||||
BALLOON:5,5,5,5,7
|
||||
SCOREINIT:1130,11030
|
||||
SCOREDIFF:675
|
||||
|
||||
#START
|
||||
02,
|
||||
02,
|
||||
02,
|
||||
02,
|
||||
|
||||
11,
|
||||
11,
|
||||
1011,
|
||||
0, //8
|
||||
|
||||
10001005,
|
||||
000000000000000000000000000008000000000000000000,
|
||||
20002006,
|
||||
000000000000000000000008000000000000000000000000,
|
||||
|
||||
1,
|
||||
1,
|
||||
70000008,
|
||||
2, //16
|
||||
|
||||
21,
|
||||
21,
|
||||
21,
|
||||
500000000000000000000000000008000000000000000000,
|
||||
|
||||
2,
|
||||
2,
|
||||
70000008,
|
||||
2, //24
|
||||
|
||||
21,
|
||||
21,
|
||||
20001007,
|
||||
0008,
|
||||
|
||||
0101,
|
||||
0101,
|
||||
0101,
|
||||
0100,
|
||||
|
||||
1110,
|
||||
1110,
|
||||
70000008,
|
||||
0, //36
|
||||
|
||||
#GOGOSTART
|
||||
1110,
|
||||
12,
|
||||
1110,
|
||||
12,
|
||||
|
||||
1110,
|
||||
1011,
|
||||
9009,
|
||||
8, //44
|
||||
|
||||
1110,
|
||||
1110,
|
||||
12,
|
||||
12,
|
||||
|
||||
11,
|
||||
12,
|
||||
11,
|
||||
4,
|
||||
#GOGOEND
|
||||
3,
|
||||
33, //54
|
||||
|
||||
20002005,
|
||||
000000000000000000000000000008000000000000000000,
|
||||
10001005,
|
||||
000000000000000000000000000008000000000000000000,
|
||||
|
||||
20002005,
|
||||
000000000000000000000000000008000000000000000000,
|
||||
10001006,
|
||||
000000000000000000000000000000000000000008000000,
|
||||
0, //63
|
||||
#END
|
||||
Reference in New Issue
Block a user