tja
This commit is contained in:
546
tja/1194.tja
Normal file
546
tja/1194.tja
Normal file
@@ -0,0 +1,546 @@
|
||||
//TJADB Project
|
||||
TITLE:Watashi wa Saikyou -Cover Audio-
|
||||
TITLEJA:私は最強
|
||||
SUBTITLE:--Song of Uta ONE PIECE FILM RED
|
||||
SUBTITLEJA:カバー音源 「ウタの歌 ONE PIECE FILM RED」より
|
||||
BPM:192
|
||||
WAVE:Watashi wa Saikyou (Cover).ogg
|
||||
OFFSET:-2.911
|
||||
DEMOSTART:66.539
|
||||
|
||||
//Shinuchi: 8190/4320/3350/2190
|
||||
|
||||
COURSE:Oni
|
||||
LEVEL:7
|
||||
BALLOON:45
|
||||
SCOREINIT:690,2280
|
||||
SCOREDIFF:180
|
||||
|
||||
#START
|
||||
02,
|
||||
10211010,
|
||||
10221020,
|
||||
10211020,
|
||||
11221020,
|
||||
|
||||
10212020,
|
||||
10221020,
|
||||
#SCROLL 0.99
|
||||
10112020,
|
||||
#SCROLL 1
|
||||
11212020, //9
|
||||
|
||||
#SCROLL 0.99
|
||||
10211020,
|
||||
#SCROLL 1
|
||||
10211120,
|
||||
10211020,
|
||||
10112120,
|
||||
|
||||
10211020,
|
||||
10222020,
|
||||
1012,
|
||||
#SCROLL 0.98
|
||||
1130, //17
|
||||
|
||||
#SCROLL 1
|
||||
#GOGOSTART
|
||||
5,
|
||||
000000000000000008000000000000000000200000200000,
|
||||
0020102000222010,
|
||||
1020200011102220,
|
||||
|
||||
#SCROLL 0.98
|
||||
1010203000112020,
|
||||
#SCROLL 1
|
||||
1010202010112020,
|
||||
0020102022201020,
|
||||
0011102000202000, //25
|
||||
#GOGOEND
|
||||
|
||||
11211020,
|
||||
10211020,
|
||||
#SCROLL 0.99
|
||||
11211011,
|
||||
20212000,
|
||||
|
||||
#SCROLL 1
|
||||
11211020,
|
||||
10211021,
|
||||
10212021,
|
||||
1010200020102022, //33
|
||||
|
||||
#SCROLL 0.99
|
||||
11211020,
|
||||
10211020,
|
||||
11211011,
|
||||
20212000,
|
||||
|
||||
10112021,
|
||||
20112022,
|
||||
#SCROLL 1
|
||||
1000201110002011,
|
||||
11112020, //41
|
||||
|
||||
10212011,
|
||||
21102010,
|
||||
10211021,
|
||||
10211002,
|
||||
|
||||
1000201120002022,
|
||||
2000202210002011,
|
||||
10121012,
|
||||
10121010,
|
||||
|
||||
#SCROLL 0.99
|
||||
30230230,
|
||||
23330000, //51
|
||||
|
||||
#SCROLL 1.01
|
||||
#GOGOSTART
|
||||
1000201010112020,
|
||||
#SCROLL 1
|
||||
1011201010111000,
|
||||
1000201010112020,
|
||||
1011201010222000,
|
||||
|
||||
1000201010112020,
|
||||
1020202210222000,
|
||||
1000102010221020,
|
||||
#GOGOEND
|
||||
#SCROLL 0.99
|
||||
1111202000112000, //59
|
||||
|
||||
#SCROLL 1
|
||||
#GOGOSTART
|
||||
1010201010112020,
|
||||
1020201010222000,
|
||||
1010201011221020,
|
||||
1010201010112000,
|
||||
|
||||
1020202220221020,
|
||||
1020102212201000,
|
||||
1010200210102010,
|
||||
#GOGOEND
|
||||
3430, //67
|
||||
|
||||
#SCROLL 0.99
|
||||
#GOGOSTART
|
||||
6,
|
||||
000000000000000000000000000008000000000000000000,
|
||||
#SCROLL 1
|
||||
1010202210102010,
|
||||
1110200010100070,
|
||||
|
||||
0,
|
||||
0,
|
||||
0,
|
||||
#BPMCHANGE 185
|
||||
#SCROLL 1.05
|
||||
080000000000000000000000200200100000000000000000,
|
||||
#GOGOEND
|
||||
0,
|
||||
0, //77
|
||||
#END
|
||||
|
||||
|
||||
COURSE:Hard
|
||||
LEVEL:4
|
||||
BALLOON:12,35
|
||||
SCOREINIT:760,3640
|
||||
SCOREDIFF:215
|
||||
|
||||
#START
|
||||
02,
|
||||
1021,
|
||||
10221020,
|
||||
1021,
|
||||
10221020,
|
||||
|
||||
1022,
|
||||
10222010,
|
||||
#SCROLL 0.99
|
||||
1012,
|
||||
#SCROLL 1
|
||||
10222020, //9
|
||||
|
||||
#SCROLL 0.99
|
||||
1021,
|
||||
#SCROLL 1
|
||||
10221020,
|
||||
1021,
|
||||
10112020,
|
||||
|
||||
1022,
|
||||
20222010,
|
||||
1012,
|
||||
#SCROLL 0.98
|
||||
1130, //17
|
||||
|
||||
#SCROLL 1
|
||||
#GOGOSTART
|
||||
9,
|
||||
090000000000000000800000000000000000000000000000,
|
||||
0,
|
||||
10201110,
|
||||
|
||||
#SCROLL 0.98
|
||||
11030020,
|
||||
#SCROLL 1
|
||||
11101022,
|
||||
01101011,
|
||||
01020220, //25
|
||||
#GOGOEND
|
||||
|
||||
1211,
|
||||
1220,
|
||||
#SCROLL 0.99
|
||||
11211011,
|
||||
10222000,
|
||||
|
||||
#SCROLL 1
|
||||
1211,
|
||||
10202001,
|
||||
10011001,
|
||||
12201000, //33
|
||||
|
||||
#SCROLL 0.99
|
||||
1211,
|
||||
1220,
|
||||
11211011,
|
||||
10222000,
|
||||
|
||||
10111022,
|
||||
20111022,
|
||||
#SCROLL 1
|
||||
10021002,
|
||||
10111020, //41
|
||||
|
||||
10012010,
|
||||
22102000,
|
||||
10012001,
|
||||
10022000,
|
||||
|
||||
10012002,
|
||||
20012002,
|
||||
10121012,
|
||||
10121010,
|
||||
|
||||
#SCROLL 0.99
|
||||
30030030,
|
||||
03330000, //51
|
||||
|
||||
#SCROLL 1.01
|
||||
#GOGOSTART
|
||||
10001022,
|
||||
#SCROLL 1
|
||||
1122,
|
||||
10001011,
|
||||
2211,
|
||||
|
||||
10001022,
|
||||
2211,
|
||||
10001120,
|
||||
#GOGOEND
|
||||
#SCROLL 0.99
|
||||
11220120, //59
|
||||
|
||||
#SCROLL 1
|
||||
#GOGOSTART
|
||||
10221021,
|
||||
1212,
|
||||
10221120,
|
||||
1212,
|
||||
|
||||
1012,
|
||||
20221010,
|
||||
1234,
|
||||
#GOGOEND
|
||||
33, //67
|
||||
|
||||
#SCROLL 0.99
|
||||
#GOGOSTART
|
||||
6,
|
||||
000000000000000000000000000008000000000000000000,
|
||||
#SCROLL 1
|
||||
0034,
|
||||
30303009,
|
||||
|
||||
0,
|
||||
0,
|
||||
09000008,
|
||||
#BPMCHANGE 185
|
||||
#SCROLL 1.05
|
||||
0,
|
||||
#GOGOEND
|
||||
0,
|
||||
0, //77
|
||||
#END
|
||||
|
||||
|
||||
COURSE:Normal
|
||||
LEVEL:3
|
||||
BALLOON:9,3,22
|
||||
SCOREINIT:700,4790
|
||||
SCOREDIFF:205
|
||||
|
||||
#START
|
||||
02,
|
||||
1001,
|
||||
1122,
|
||||
1001,
|
||||
1122,
|
||||
|
||||
1001,
|
||||
2211,
|
||||
#SCROLL 0.99
|
||||
1011,
|
||||
#SCROLL 1
|
||||
10111010, //9
|
||||
|
||||
#SCROLL 0.99
|
||||
1001,
|
||||
#SCROLL 1
|
||||
1221,
|
||||
1001,
|
||||
1221,
|
||||
|
||||
1002,
|
||||
2111,
|
||||
1011,
|
||||
#SCROLL 0.98
|
||||
13, //17
|
||||
|
||||
#SCROLL 1
|
||||
#GOGOSTART
|
||||
9,
|
||||
090000000000000000800000000000000000000000000000,
|
||||
0,
|
||||
0022,
|
||||
|
||||
#SCROLL 0.98
|
||||
10030020,
|
||||
#SCROLL 1
|
||||
0112,
|
||||
0111,
|
||||
02020000, //25
|
||||
#GOGOEND
|
||||
|
||||
1112,
|
||||
1220,
|
||||
#SCROLL 0.99
|
||||
11101010,
|
||||
2220,
|
||||
|
||||
#SCROLL 1
|
||||
1122,
|
||||
1220,
|
||||
1212,
|
||||
2220, //33
|
||||
|
||||
#SCROLL 0.99
|
||||
1112,
|
||||
1220,
|
||||
11101010,
|
||||
2220,
|
||||
|
||||
10111010,
|
||||
1122,
|
||||
#SCROLL 1
|
||||
1212,
|
||||
2210, //41
|
||||
|
||||
10011000,
|
||||
1120,
|
||||
10011000,
|
||||
1220,
|
||||
|
||||
10011000,
|
||||
20022000,
|
||||
1111,
|
||||
1111,
|
||||
|
||||
#SCROLL 0.99
|
||||
30030030,
|
||||
03330000, //51
|
||||
|
||||
#SCROLL 1.01
|
||||
#GOGOSTART
|
||||
1001,
|
||||
#SCROLL 1
|
||||
1122,
|
||||
1001,
|
||||
2211,
|
||||
|
||||
1001,
|
||||
2211,
|
||||
1012,
|
||||
#GOGOEND
|
||||
#SCROLL 0.99
|
||||
70080000, //59
|
||||
|
||||
#SCROLL 1
|
||||
#GOGOSTART
|
||||
10001011,
|
||||
1122,
|
||||
10001011,
|
||||
1122,
|
||||
|
||||
1002,
|
||||
2211,
|
||||
1034,
|
||||
#GOGOEND
|
||||
33, //67
|
||||
|
||||
#SCROLL 0.99
|
||||
#GOGOSTART
|
||||
6,
|
||||
000000000000000000000000000008000000000000000000,
|
||||
#SCROLL 1
|
||||
0034,
|
||||
30303009,
|
||||
|
||||
0,
|
||||
0,
|
||||
09000008,
|
||||
#BPMCHANGE 185
|
||||
#SCROLL 1.05
|
||||
0,
|
||||
#GOGOEND
|
||||
0,
|
||||
0, //77
|
||||
#END
|
||||
|
||||
|
||||
COURSE:Easy
|
||||
LEVEL:2
|
||||
BALLOON:8,2,19
|
||||
SCOREINIT:840,9550
|
||||
SCOREDIFF:400
|
||||
|
||||
#START
|
||||
02,
|
||||
1,
|
||||
11,
|
||||
1,
|
||||
11,
|
||||
|
||||
1,
|
||||
22,
|
||||
#SCROLL 0.99
|
||||
2011,
|
||||
#SCROLL 1
|
||||
11, //9
|
||||
|
||||
#SCROLL 0.99
|
||||
1,
|
||||
#SCROLL 1
|
||||
12,
|
||||
2,
|
||||
12,
|
||||
|
||||
2,
|
||||
22,
|
||||
1,
|
||||
#SCROLL 0.98
|
||||
03, //17
|
||||
|
||||
#SCROLL 1
|
||||
#GOGOSTART
|
||||
9,
|
||||
090000000000000000800000000000000000000000000000,
|
||||
0,
|
||||
0022,
|
||||
|
||||
#SCROLL 0.98
|
||||
00030000,
|
||||
#SCROLL 1
|
||||
01,
|
||||
01,
|
||||
00010000, //25
|
||||
#GOGOEND
|
||||
|
||||
1,
|
||||
11,
|
||||
#SCROLL 0.99
|
||||
1,
|
||||
22,
|
||||
|
||||
#SCROLL 1
|
||||
1,
|
||||
11,
|
||||
5,
|
||||
000000000000000000000008000000000000000000000000, //33
|
||||
|
||||
#SCROLL 0.99
|
||||
1,
|
||||
11,
|
||||
1,
|
||||
22,
|
||||
|
||||
11,
|
||||
11,
|
||||
#SCROLL 1
|
||||
5,
|
||||
000000000000000000000008000000000000000000000000, //41
|
||||
|
||||
1,
|
||||
2,
|
||||
11,
|
||||
1,
|
||||
|
||||
1,
|
||||
2,
|
||||
1110,
|
||||
1110,
|
||||
|
||||
#SCROLL 0.99
|
||||
30030030,
|
||||
03000000, //51
|
||||
|
||||
#SCROLL 1.01
|
||||
#GOGOSTART
|
||||
1,
|
||||
#SCROLL 1
|
||||
1110,
|
||||
1,
|
||||
1110,
|
||||
|
||||
1,
|
||||
1110,
|
||||
11,
|
||||
#GOGOEND
|
||||
#SCROLL 0.99
|
||||
70080000, //59
|
||||
|
||||
#SCROLL 1
|
||||
#GOGOSTART
|
||||
11,
|
||||
1110,
|
||||
11,
|
||||
1110,
|
||||
|
||||
1,
|
||||
22,
|
||||
2033,
|
||||
#GOGOEND
|
||||
33, //67
|
||||
|
||||
#SCROLL 0.99
|
||||
#GOGOSTART
|
||||
6,
|
||||
000000000000000000000000000008000000000000000000,
|
||||
#SCROLL 1
|
||||
0033,
|
||||
30003009,
|
||||
|
||||
0,
|
||||
0,
|
||||
09000008,
|
||||
#BPMCHANGE 185
|
||||
#SCROLL 1.05
|
||||
0,
|
||||
#GOGOEND
|
||||
0,
|
||||
0, //77
|
||||
#END
|
||||
Reference in New Issue
Block a user