This commit is contained in:
2026-03-04 23:59:27 +09:00
parent 6e0312f5b4
commit 4b4e2b8c98
1128 changed files with 668765 additions and 0 deletions

414
tja/1195.tja Normal file
View File

@@ -0,0 +1,414 @@
//TJADB Project
TITLE:Hirogaru Sky! Precure Hero Girls
TITLEJA:ひろがるスカイ!プリキュア Hero Girls
SUBTITLE:--
SUBTITLEJA:
BPM:184
WAVE:Hirogaru Sky! Precure Hero Girls.ogg
OFFSET:-2.142
DEMOSTART:57.563
//SONG_ID:pr9sky
COURSE:Oni
LEVEL:6
BALLOON:26,24,15,35
SCOREINIT:3060
SCOREDIFF:0
#START
0000101
#GOGOSTART
3,
0000200010222010,
01201211,
0000202220200010,
01101221,
1110101000102010,
1110101000102010,
600000000000000000000000000000000000000000000008,
00101101,
7,
000000000000000000000000000000000000000008000000,
10112101,
2010100010102220,
7,
000000000000000000000000000000000008000000000000, //15
#GOGOEND
10121112,
00202110,
10121112,
00202110,
11210112,
00201120,
10121112,
0020001010222010,
10212111,
01201120,
10212111,
01202120,
11012111,
00201120,
10212111,
0010001000222020, //31
10211022,
10211020,
5,
000000000000000000000000000000000000000008000000,
10211021,
0010100010102220,
10111022,
12211222,
5,
000000000000000000000008000000000000200000000000,
6,
000008000000000000000000100000000000200000
#GOGOSTART
300000, //43
0010200010201011,
1010200010201011,
11221101,
01201121,
1110101000102010,
1110101000102010,
7,
000008000000000000000000100000100000200000100100,
1010200010201011,
1010200010201011,
1010202010100011,
11201120,
1110201020001000, //56
2000101020100011,
11112020,
2000101020100011,
11112110,
20212026,
000000000000000000000000000000000000000008000000,
0443,
07,
0,
000000000000000000000000000000000000000000000008,
#GOGOEND
0,
0,
0, //69
#END
COURSE:Hard
LEVEL:3
BALLOON:19,9,12,26
SCOREINIT:4890
SCOREDIFF:0
#START
0000101
#GOGOSTART
3,
00201011,
00201011,
00220201,
01100000,
10110020,
10110020,
600000000000000000000000000000000000000000000008,
00101100,
7,
000000000000000000000000000000000000000008000000,
10110101,
0022,
900000000000000000000000000000000009000000000008,
0, //15
#GOGOEND
10001101,
0122,
10001101,
0220,
11010101,
0122,
500000000000000000000000000000000000000008000000,
02022020,
10101101,
01102000,
10110111,
01102020,
11010101,
0122,
10011011,
02020202, //31
10011020,
10011020,
5,
000000000000000000000000000000000000000008000000,
10011021,
0122,
10111020,
10111020,
5,
000000000000000000000008000000000000200000000000,
6,
000008000000000000000000100000000000100000
#GOGOSTART
300000, //43
01201011,
01201011,
00220201,
01201000,
10110020,
10110020,
7,
000008000000000000000000100000000000100000300000,
01201011,
01201011,
00220101,
0211,
10011010, //56
20110101,
01101020,
20110101,
01101110,
20111016,
000000000000000000000000000000000000000008000000,
0333,
09,
0,
000000000000000009000000000000000000000000000008,
#GOGOEND
0,
0,
0, //69
#END
COURSE:Normal
LEVEL:2
BALLOON:10,6,7,15
SCOREINIT:12370
SCOREDIFF:0
#START
0000000
#GOGOSTART
3,
00100001,
00100001,
00100001,
0100,
10010000,
10010000,
600000000000000000000000000000000000000008000000,
0110,
7,
000000000000000000000000000008000000000000000000,
10000001,
0,
900000000000000000000000000000000009000000000008,
0, //15
#GOGOEND
10000001,
0,
10000001,
0,
10000001,
0,
11,
0,
20000001,
0,
20000001,
0,
10000001,
0,
11,
0, //31
2,
22,
5,
000000000000000000000000000008000000000000000000,
10000001,
01,
11,
1110,
5,
000000000000000000000008000000000000000000000000,
6,
000008000000000000000000000000000000000000
#GOGOSTART
300000, //43
00100001,
00100001,
00100001,
0100,
10010000,
10010000,
7,
000008000000000000000000000000000000000000300000,
00100001,
00100001,
00100001,
01,
11, //56
11,
1110,
11,
1110,
20002006,
000000000000000000000000000000000000000008000000,
0333,
09,
0,
000000000000000009000000000000000000000000000008,
#GOGOEND
0,
0,
0, //69
#END
COURSE:Easy
LEVEL:1
BALLOON:8,5,5,12
SCOREINIT:21560
SCOREDIFF:0
#START
0000000
#GOGOSTART
3,
00000001,
00000001,
00000001,
0,
1,
1,
600000000000000000000000000000000000000008000000,
0,
7,
000000000000000000000000000008000000000000000000,
10000001,
0,
900000000000000000000000000000000009000000000008,
0, //15
#GOGOEND
1,
0,
1,
0,
1,
0,
10000001,
0,
2,
0,
2,
0,
10000001,
0,
10000001,
0, //31
2,
2,
5,
000000000000000000000000000008000000000000000000,
10000001,
0,
11,
0,
5,
000000000000000000000008000000000000000000000000,
6,
000008000000000000000000000000000000000000
#GOGOSTART
300000, //43
00000001,
00000001,
00000001,
0,
1,
1,
7,
000008000000000000000000000000000000000000300000,
00000001,
00000001,
00000001,
0,
1, //56
11,
1,
11,
1,
10000006,
000000000000000000000000000000000000000008000000,
0333,
09,
0,
000000000000000009000000000000000000000000000008,
#GOGOEND
0,
0,
0, //69
#END