tja
This commit is contained in:
349
tja/1211.tja
Normal file
349
tja/1211.tja
Normal file
@@ -0,0 +1,349 @@
|
||||
//TJADB Project
|
||||
TITLE:Yoidore Shirazu
|
||||
TITLEJA:酔いどれ知らず
|
||||
SUBTITLE:--Kanaria feat. GUMI
|
||||
SUBTITLEJA:Kanaria
|
||||
BPM:115
|
||||
WAVE:Yoidore Shirazu.ogg
|
||||
OFFSET:-0.42
|
||||
DEMOSTART:41.267
|
||||
SONGVOL:100
|
||||
SEVOL:100
|
||||
SCOREMODE:2
|
||||
|
||||
//Shinuchi: 8420/5400/2780/2040
|
||||
|
||||
COURSE:Oni
|
||||
LEVEL:8
|
||||
BALLOON:
|
||||
SCOREINIT:670,2060
|
||||
SCOREDIFF:180
|
||||
|
||||
#START
|
||||
10221120,
|
||||
100000200202100100200000,
|
||||
300100200100101100200000,
|
||||
11220000, //4
|
||||
|
||||
100100200100100001200200,
|
||||
100100200100100222200200,
|
||||
100101200100100001200200,
|
||||
11221212,
|
||||
|
||||
100100200100100001200200,
|
||||
100100200100100222200200,
|
||||
100101200100100001200200,
|
||||
11221122, //12
|
||||
|
||||
300201102001100100200200,
|
||||
100201102001100100200200,
|
||||
100202202001100100200000,
|
||||
101010202002100100202100,
|
||||
|
||||
100201102001100100200200,
|
||||
100201102001100100200200,
|
||||
100202202002100000100000,
|
||||
500000000000000000000008000000100000200000200000, //20
|
||||
|
||||
#GOGOSTART
|
||||
100200100201101102200100,
|
||||
100200100202101102200000,
|
||||
100200202002100100200200,
|
||||
100000100020000010500000000000000008000000000000,
|
||||
|
||||
100200100201101102200100,
|
||||
100200100202101102200100,
|
||||
100200202002100100200200,
|
||||
100102001200100200200200,
|
||||
#GOGOEND
|
||||
500000000000000000000000000000000008000000000000, //29
|
||||
|
||||
300100200100100001200200,
|
||||
000000200100100222200200,
|
||||
11211122,
|
||||
11221212,
|
||||
|
||||
100200100200200002100200,
|
||||
100200100200200222200200,
|
||||
100202100200200100200200,
|
||||
11222122, //37
|
||||
|
||||
300201102001100100200200,
|
||||
100201102001100100200200,
|
||||
100202202001100100200000,
|
||||
101010202002100100200000,
|
||||
|
||||
100201102001100100200200,
|
||||
100201102001100100200200,
|
||||
100202202002100000100000,
|
||||
500000000000000000000008000000100000200000200000, //45
|
||||
|
||||
#GOGOSTART
|
||||
100200100201101102200100,
|
||||
100200100202101102200000,
|
||||
100200202002100100200200,
|
||||
100000100020000010500000000000000008000000000000,
|
||||
|
||||
100200100201101102200100,
|
||||
100200100202101102200000,
|
||||
100200202002100100200200,
|
||||
100102001200200222200200, //53
|
||||
|
||||
100202201202201200200100,
|
||||
100201201101101100200000,
|
||||
#GOGOEND
|
||||
100000200100100200101100,
|
||||
3, //57
|
||||
#END
|
||||
|
||||
|
||||
COURSE:Hard
|
||||
LEVEL:5
|
||||
BALLOON:
|
||||
SCOREINIT:650,2830
|
||||
SCOREDIFF:185
|
||||
|
||||
#START
|
||||
10221020,
|
||||
10221020,
|
||||
30221120,
|
||||
11220000, //4
|
||||
|
||||
100100200100100001100000,
|
||||
100100200100100002200000,
|
||||
100100200100100001100000,
|
||||
11221120,
|
||||
|
||||
100100200100100001100000,
|
||||
100100200100100002200000,
|
||||
100100200100100001100000,
|
||||
11221120, //12
|
||||
|
||||
32101122,
|
||||
12101122,
|
||||
12101120,
|
||||
101010100001100100200000,
|
||||
|
||||
12101122,
|
||||
12101122,
|
||||
12101010,
|
||||
500000000000000000000008000000000000000000000000, //20
|
||||
|
||||
#GOGOSTART
|
||||
100000100001100100200100,
|
||||
100000100002200200200000,
|
||||
100200200001100100200200,
|
||||
100000100010000010100000500000000008000000000000,
|
||||
|
||||
100000100001100100200100,
|
||||
100000100002200200200000,
|
||||
100200200001100100200200,
|
||||
100101001100000200200200,
|
||||
#GOGOEND
|
||||
500000000000000000000000000000000008000000000000, //29
|
||||
|
||||
300100200100100001100000,
|
||||
000000200100100002200000,
|
||||
11211120,
|
||||
11221120,
|
||||
|
||||
100200100200200002200000,
|
||||
100200100200200002200000,
|
||||
12121120,
|
||||
11221120, //37
|
||||
|
||||
32101122,
|
||||
12101122,
|
||||
12201120,
|
||||
101010100001100100200000,
|
||||
|
||||
12101122,
|
||||
12101122,
|
||||
12201010,
|
||||
500000000000000000000008000000000000000000000000, //45
|
||||
|
||||
#GOGOSTART
|
||||
100000100001100100200100,
|
||||
100000100002200200200000,
|
||||
100100100001100100200200,
|
||||
100000100010000010100000500000000008000000000000,
|
||||
|
||||
100000100001100100200100,
|
||||
100000100002200200200000,
|
||||
100200200001100100200200,
|
||||
100101001100000400000000, //53
|
||||
|
||||
100200200002200200200000,
|
||||
100200200001100100200000,
|
||||
#GOGOEND
|
||||
10221020,
|
||||
3, //57
|
||||
#END
|
||||
|
||||
|
||||
COURSE:Normal
|
||||
LEVEL:3
|
||||
BALLOON:12
|
||||
SCOREINIT:850,5620
|
||||
SCOREDIFF:310
|
||||
|
||||
#START
|
||||
12,
|
||||
12,
|
||||
32,
|
||||
1100, //4
|
||||
|
||||
1110,
|
||||
1120,
|
||||
1110,
|
||||
1122,
|
||||
|
||||
1110,
|
||||
1120,
|
||||
1110,
|
||||
1122, //12
|
||||
|
||||
30001110,
|
||||
10002220,
|
||||
10001110,
|
||||
1110,
|
||||
|
||||
10001110,
|
||||
10002220,
|
||||
1011,
|
||||
500000000000000000000008000000000000000000000000, //20
|
||||
|
||||
#GOGOSTART
|
||||
10101110,
|
||||
10101110,
|
||||
1211,
|
||||
500000000000000000000000000000000008000000000000,
|
||||
|
||||
10101110,
|
||||
10101110,
|
||||
1211,
|
||||
700000000000000000000000000000000000000000000008,
|
||||
#GOGOEND
|
||||
0, //29
|
||||
|
||||
3110,
|
||||
0120,
|
||||
1110,
|
||||
1212,
|
||||
|
||||
1120,
|
||||
2210,
|
||||
1110,
|
||||
1212, //37
|
||||
|
||||
30001110,
|
||||
10002220,
|
||||
10001110,
|
||||
1110,
|
||||
|
||||
10001110,
|
||||
10002220,
|
||||
1011,
|
||||
500000000000000000000008000000000000000000000000, //45
|
||||
|
||||
#GOGOSTART
|
||||
10101110,
|
||||
10101110,
|
||||
1211,
|
||||
500000000000000000000000000000000008000000000000,
|
||||
|
||||
10101110,
|
||||
10101110,
|
||||
1211,
|
||||
500000000000000000000000000008000000000000000000, //53
|
||||
|
||||
1220,
|
||||
1210,
|
||||
#GOGOEND
|
||||
1210,
|
||||
3, //57
|
||||
#END
|
||||
|
||||
|
||||
COURSE:Easy
|
||||
LEVEL:3
|
||||
BALLOON:10
|
||||
SCOREINIT:920,8810
|
||||
SCOREDIFF:470
|
||||
|
||||
#START
|
||||
1,
|
||||
1,
|
||||
3,
|
||||
1100, //4
|
||||
|
||||
11,
|
||||
1,
|
||||
11,
|
||||
1110,
|
||||
|
||||
11,
|
||||
1,
|
||||
11,
|
||||
1110, //12
|
||||
|
||||
1011,
|
||||
1022,
|
||||
21,
|
||||
1,
|
||||
|
||||
1011,
|
||||
1022,
|
||||
2011,
|
||||
500000000000000000000008000000000000000000000000, //20
|
||||
|
||||
#GOGOSTART
|
||||
1110,
|
||||
1110,
|
||||
11,
|
||||
500000000000000000000000000008000000000000000000,
|
||||
|
||||
1110,
|
||||
1110,
|
||||
11,
|
||||
700000000000000000000000000000000000000000000008,
|
||||
#GOGOEND
|
||||
0, //29
|
||||
|
||||
31,
|
||||
02,
|
||||
11,
|
||||
1110,
|
||||
|
||||
12,
|
||||
12,
|
||||
12,
|
||||
1110, //37
|
||||
|
||||
3011,
|
||||
1022,
|
||||
21,
|
||||
1110,
|
||||
|
||||
1011,
|
||||
1022,
|
||||
2011,
|
||||
500000000000000000000008000000000000000000000000, //45
|
||||
|
||||
#GOGOSTART
|
||||
1110,
|
||||
1110,
|
||||
11,
|
||||
500000000000000000000000000008000000000000000000,
|
||||
|
||||
1110,
|
||||
1110,
|
||||
11,
|
||||
500000000000000000000000000008000000000000000000, //53
|
||||
|
||||
12,
|
||||
1,
|
||||
#GOGOEND
|
||||
1,
|
||||
3, //57
|
||||
#END
|
||||
Reference in New Issue
Block a user