This commit is contained in:
2026-03-04 23:59:27 +09:00
parent 6e0312f5b4
commit 4b4e2b8c98
1128 changed files with 668765 additions and 0 deletions

631
tja/1212.tja Normal file
View File

@@ -0,0 +1,631 @@
//TJADB Project
TITLE:Rat A Tat!!!
TITLEJA:Rat A Tat!!!
SUBTITLE:--From Anime "Idolm@ster Million Live!"
SUBTITLEJA:アニメ「アイドルマスター ミリオンライブ!」より
BPM:192
WAVE:Rat A Tat.ogg
OFFSET:-1.400
DEMOSTART:58.490
COURSE:Edit
LEVEL:9
BALLOON:10,3
SCOREINIT:1760
SCOREDIFF:0
#START
#SCROLL 0.5
2,
#BARLINEOFF
0,
#BARLINEON
2,
#BARLINEOFF
0,
#BARLINEON
20020020,
#BARLINEOFF
20220022,
#BARLINEON
7008, //7
#SCROLL 1
1110102220201110,
2011102011112000,
1222111122221111,
#MEASURE 3/4
20111040
#BPMCHANGE 96
#SCROLL 2
0000, //11
#MEASURE 4/4
#BPMCHANGE 192
#SCROLL 1
#GOGOSTART
30414140,
1110102010212020,
1120102011221020,
1111202000202211,
10414140,
1110102010212020,
1212101021212020,
3030303000222000, //19
#GOGOEND
1000100011102010,
1000100010112011,
1000100011102010,
1000100010112011,
1000100011102010,
0010101000112011,
1000100010222030,
0000000020112000, //27
1000200011102010,
0010200010112022,
1000200011102010,
0010200010112022,
1000200011102010,
0010201000102022,
1010121012121030,
0010401020112000, //35
1110001020001110,
0010001120001010,
1110001020001110,
0010001120102000,
1010201011102010,
0011201020112010,
2010221020102210,
0010221220102022, //43
1011201021112010,
0011221122112222,
500000000000000000000000000000008000000000000000, //46
#GOGOSTART
3000201110201120,
1110201021102011,
2000201110201120,
1110201120102211,
2011112000112010,
2011112000112010,
2012201120122010,
2211102000222111, //54
#GOGOEND
0010
#GOGOSTART
400010201120,
1110201021102011,
2000201110201120,
1110201120102211,
2011112000112010,
2011212000112220,
2012201120122010,
#GOGOEND
#MEASURE 2/4
#BPMCHANGE 96
#SCROLL 2
7000800011111111, //62
#MEASURE 4/4
#BPMCHANGE 192
#SCROLL 1
#GOGOSTART
10414140,
1110102010212020,
1120102011221020,
1111202000202211,
10414140,
1110102010212020,
1212101021212020,
33330000,
#BARLINEOFF
0,
#GOGOEND
0, //72
#END
COURSE:Oni
LEVEL:5
BALLOON:39,20,20,24
SCOREINIT:3910
SCOREDIFF:0
#START
2,
22,
2,
22,
2,
2,
22,
7,
0,
0008,
#MEASURE 3/4
4004
#BPMCHANGE 96
#SCROLL 2
00, //11
#MEASURE 4/4
#BPMCHANGE 192
#SCROLL 1
#GOGOSTART
0333,
1110101020001020,
1000200011102020,
500000000000000000000000000000000000000000000008,
0333,
1110101020001020,
1000200011102020,
33330000, //19
#GOGOEND
0112,
10111020,
0112,
1212,
7,
08,
22222024,
0044, //27
00201120,
10211020,
00211020,
10201120,
7,
08,
22222024,
0044, //35
0221,
2220202020001020,
20202212,
2220100020000000,
10201121,
0010200011102000,
500000000000000000000000000000000000000000000008,
0022,
7,
0008,
3, //46
#GOGOSTART
10210120,
1110200010102000,
500000000000000000000008000000000000200000200000,
1110100020000000,
30040120,
30040120,
1110200010102000,
500000000000000000000008000000000000000000000000, //54
#GOGOEND
10
#GOGOSTART
210120,
1110200010102000,
500000000000000000000000000008000000200000200000,
1110100020000000,
30330120,
30440120,
1000200011102000,
#GOGOEND
#MEASURE 2/4
#BPMCHANGE 96
#SCROLL 2
12, //62
#MEASURE 4/4
#BPMCHANGE 192
#SCROLL 1
#GOGOSTART
0333,
1110101020001020,
1000200011102020,
500000000000000000000000000000000000000000000008,
0333,
1110101020001020,
1000200011102020,
33330000,
#BARLINEOFF
0,
#GOGOEND
0, //72
#END
COURSE:Hard
LEVEL:5
BALLOON:35,18,18,22
SCOREINIT:4950
SCOREDIFF:0
#START
2,
2,
2,
22,
2,
2,
22,
9,
0,
0900,
#MEASURE 3/4
80
#BPMCHANGE 96
#SCROLL 2
0, //11
#MEASURE 4/4
#BPMCHANGE 192
#SCROLL 1
#GOGOSTART
0333,
10112011,
10201122,
500000000000000000000000000000000000000000000008,
0333,
10112011,
10201022,
33330000, //19
#GOGOEND
0112,
10111020,
0112,
1212,
7,
08,
22222004,
0044, //27
0212,
10211020,
00211020,
1212,
7,
08,
22222004,
0044, //35
0221,
20222012,
20202212,
2120,
10201021,
00201120,
500000000000000000000000000000000000000000000008,
0022,
9,
09,
8, //46
#GOGOSTART
10020020,
11201020,
500000000000000000000008000000000000200000200000,
1120,
30040000,
30040000,
10201120,
500000000000000000000008000000000000000000000000, //54
#GOGOEND
10
#GOGOSTART
020020,
11201020,
500000000000000000000000000008000000200000200000,
1120,
30330000,
30440000,
10201120,
#GOGOEND
#MEASURE 2/4
#BPMCHANGE 96
#SCROLL 2
12, //62
#MEASURE 4/4
#BPMCHANGE 192
#SCROLL 1
#GOGOSTART
0333,
10112011,
10201122,
500000000000000000000000000000000000000000000008,
0333,
10112011,
10201022,
33330000,
#BARLINEOFF
0,
#GOGOEND
0, //72
#END
COURSE:Normal
LEVEL:5
BALLOON:20,11,11,13
SCOREINIT:5670
SCOREDIFF:0
#START
2,
0,
2,
0,
2,
2,
22,
9,
0,
0900,
#MEASURE 3/4
80
#BPMCHANGE 96
#SCROLL 2
0, //11
#MEASURE 4/4
#BPMCHANGE 192
#SCROLL 1
#GOGOSTART
0333,
10111000,
10101110,
500000000000000000000000000000000000000000000008,
0333,
10111000,
1110,
33330000, //19
#GOGOEND
0112,
10111010,
0111,
1212,
7,
08,
22202004,
0044, //27
0112,
10111010,
00111010,
1212,
7,
08,
22202004,
0044, //35
0221,
20222000,
20202220,
2120,
10101011,
0122,
500000000000000000000000000000000000000000000008,
0022,
9,
09,
8, //46
#GOGOSTART
10020020,
1121,
10000011,
1120,
30030000,
30030000,
1212,
500000000000000000000008000000000000000000000000, //54
#GOGOEND
10
#GOGOSTART
020020,
1121,
10000011,
1120,
30330000,
30330000,
1122,
#GOGOEND
#MEASURE 2/4
#BPMCHANGE 96
#SCROLL 2
12, //62
#MEASURE 4/4
#BPMCHANGE 192
#SCROLL 1
#GOGOSTART
0333,
10111000,
10101110,
500000000000000000000000000000000000000000000008,
0333,
10111000,
1122,
33330000,
#BARLINEOFF
0,
#GOGOEND
0, //72
#END
COURSE:Easy
LEVEL:3
BALLOON:17,9,9,11
SCOREINIT:8490
SCOREDIFF:0
#START
2,
0,
2,
0,
2,
2,
22,
9,
0,
0900,
#MEASURE 3/4
80
#BPMCHANGE 96
#SCROLL 2
0, //11
#MEASURE 4/4
#BPMCHANGE 192
#SCROLL 1
#GOGOSTART
0333,
1110,
11,
500000000000000000000000000000000000000008000000,
0333,
1110,
11,
3300, //19
#GOGOEND
0110,
11,
0110,
11,
7,
08,
20202004,
0, //27
0110,
11,
0110,
11,
7,
08,
20202004,
0, //35
0220,
2,
22,
2220,
10101001,
01,
500000000000000000000000000000000000000000000008,
0,
9,
09,
8, //46
#GOGOSTART
10010000,
1110,
1001,
1110,
30030000,
30030000,
1111,
500000000000000000000008000000000000000000000000, //54
#GOGOEND
10
#GOGOSTART
010000,
1110,
1001,
1110,
30030000,
30030000,
1111,
#GOGOEND
#MEASURE 2/4
#BPMCHANGE 96
#SCROLL 2
12, //62
#MEASURE 4/4
#BPMCHANGE 192
#SCROLL 1
#GOGOSTART
0333,
1110,
11,
500000000000000000000000000000000000000008000000,
0333,
1110,
11,
3300,
#BARLINEOFF
0,
#GOGOEND
0, //72
#END