tja
This commit is contained in:
795
tja/1225.tja
Normal file
795
tja/1225.tja
Normal file
@@ -0,0 +1,795 @@
|
||||
//TJADB Project
|
||||
TITLE:Taiko-zamurai -New Audio/Chart-
|
||||
TITLEJA:太鼓侍
|
||||
SUBTITLE:--Yuuji Masubuchi
|
||||
SUBTITLEJA:新音源・譜面
|
||||
BPM:137.1
|
||||
WAVE:Taiko-zamurai.ogg
|
||||
OFFSET:-3.591
|
||||
DEMOSTART:17.815
|
||||
|
||||
//shinuchi: 5300/3570/1870/1660/1490
|
||||
|
||||
COURSE:Edit
|
||||
LEVEL:8
|
||||
BALLOON:16
|
||||
SCOREINIT:500,1560
|
||||
SCOREDIFF:130
|
||||
|
||||
#START
|
||||
#SCROLL 0.98
|
||||
3,
|
||||
#BPMCHANGE 134.25
|
||||
#SCROLL 1.01
|
||||
1221000012210000,
|
||||
#BPMCHANGE 134.57
|
||||
#SCROLL 1
|
||||
301112,
|
||||
1111002011103000,
|
||||
|
||||
1001101101101110,
|
||||
#BPMCHANGE 135
|
||||
1001101220202021,
|
||||
1001101101101110,
|
||||
3003000400400000, //8
|
||||
|
||||
1001101101101110,
|
||||
1001101220202021,
|
||||
1001101101101110,
|
||||
1001101220202021,
|
||||
|
||||
1001101101101110,
|
||||
2020101220202011,
|
||||
#BPMCHANGE 136.3
|
||||
#SCROLL 0.99
|
||||
2020010102021010,
|
||||
#BPMCHANGE 133.72
|
||||
#SCROLL 1.01
|
||||
0101020202211010, //16
|
||||
|
||||
#BPMCHANGE 135
|
||||
#SCROLL 1
|
||||
1001102101101120,
|
||||
1001101220202211,
|
||||
1001102101101120,
|
||||
1001101220122211,
|
||||
|
||||
1001102101101120,
|
||||
#BPMCHANGE 135.94
|
||||
#SCROLL 0.99
|
||||
2020101220202211,
|
||||
#BPMCHANGE 134.19
|
||||
#SCROLL 1.01
|
||||
1010210101021020,
|
||||
#BPMCHANGE 134.88
|
||||
#SCROLL 1
|
||||
2101020201103000, //24
|
||||
|
||||
#BPMCHANGE 135
|
||||
1010101110101011,
|
||||
1010101110111010,
|
||||
1010101110101011,
|
||||
#BPMCHANGE 135.77
|
||||
#SCROLL 0.99
|
||||
1011101110120120,
|
||||
|
||||
#BPMCHANGE 135.79
|
||||
100000000100100000200000100000000200000000202020,
|
||||
#BPMCHANGE 133.81
|
||||
#SCROLL 1.01
|
||||
200000100000100000001010100000200100000200100100,
|
||||
#BPMCHANGE 134.66
|
||||
#SCROLL 1
|
||||
100000000100100000200000100000000200000000101010, //31
|
||||
|
||||
#BPMCHANGE 136.47
|
||||
#SCROLL 0.99
|
||||
1022201022201022,
|
||||
#BPMCHANGE 135.14
|
||||
#SCROLL 1
|
||||
2010201110212220,
|
||||
#BPMCHANGE 133.42
|
||||
#SCROLL 1.01
|
||||
7008,
|
||||
|
||||
#BPMCHANGE 135
|
||||
#SCROLL 1
|
||||
0020101012022011,
|
||||
0020120120220211,
|
||||
0020111012020211,
|
||||
0011102220120120, //38
|
||||
|
||||
1020101012020211,
|
||||
1022112211010122,
|
||||
1021011202101110, //41
|
||||
|
||||
1112111211121112,
|
||||
#BPMCHANGE 135.77
|
||||
#SCROLL 0.99
|
||||
101010100100100100101010100100100100100100100100,
|
||||
#BPMCHANGE 135.72
|
||||
101110301110,
|
||||
#BPMCHANGE 133.53
|
||||
#SCROLL 1.01
|
||||
300010101000300300300300, //45
|
||||
|
||||
#BPMCHANGE 135
|
||||
#SCROLL 1
|
||||
#GOGOSTART
|
||||
1002101102011012,
|
||||
#BPMCHANGE 135.5
|
||||
2020201102011120,
|
||||
#BPMCHANGE 135.32
|
||||
1002101102011022,
|
||||
#BPMCHANGE 134.73
|
||||
1012220112201120,
|
||||
|
||||
1002101102011012,
|
||||
2020201102011120,
|
||||
#BPMCHANGE 135.44
|
||||
1002101102011120,
|
||||
|
||||
#BPMCHANGE 134.89
|
||||
1122101122101122,
|
||||
200000100200200000102020200000102020200000101010,
|
||||
1011201011201120,
|
||||
500000000000000008000000300000000000000000000000, //56
|
||||
#GOGOEND
|
||||
|
||||
#BPMCHANGE 135.19
|
||||
1020201202011220,
|
||||
1020201202012210,
|
||||
#BPMCHANGE 135.88
|
||||
#SCROLL 0.99
|
||||
1020201202011220,
|
||||
#BPMCHANGE 134.5
|
||||
#SCROLL 1
|
||||
3003000400400000,
|
||||
|
||||
#BPMCHANGE 134.85
|
||||
1020201202011221,
|
||||
1020201202012211,
|
||||
#BPMCHANGE 135.85
|
||||
#SCROLL 0.99
|
||||
1020201202011220,
|
||||
#BPMCHANGE 133.72
|
||||
#SCROLL 1.01
|
||||
3003000400400000, //64
|
||||
|
||||
#BPMCHANGE 135
|
||||
#SCROLL 1
|
||||
300000000000000000100100100100100100200020002000,
|
||||
202020100100100100100100,
|
||||
222200,
|
||||
000112100000000300000000,
|
||||
0,
|
||||
0, //70
|
||||
#END
|
||||
|
||||
|
||||
COURSE:Oni
|
||||
LEVEL:8
|
||||
BALLOON:
|
||||
SCOREINIT:560,1730
|
||||
SCOREDIFF:148
|
||||
|
||||
#START
|
||||
#SCROLL 0.98
|
||||
1,
|
||||
#BPMCHANGE 134.25
|
||||
#SCROLL 1.01
|
||||
222222222222,
|
||||
#BPMCHANGE 134.57
|
||||
#SCROLL 1
|
||||
101111,
|
||||
1111002011102002,
|
||||
|
||||
1001102010011010,
|
||||
#BPMCHANGE 135
|
||||
1001102010011110,
|
||||
1001102010011010,
|
||||
3003000400300000, //8
|
||||
|
||||
1002102010011020,
|
||||
1002102010111020,
|
||||
1002102010011020,
|
||||
1002102010111020,
|
||||
|
||||
1002102010011020,
|
||||
1002102010111020,
|
||||
#BPMCHANGE 136.3
|
||||
#SCROLL 0.99
|
||||
1002102010011020,
|
||||
#BPMCHANGE 133.72
|
||||
#SCROLL 1.01
|
||||
2101010202103030, //16
|
||||
|
||||
#BPMCHANGE 135
|
||||
#SCROLL 1
|
||||
1002102010011020,
|
||||
1002102010111020,
|
||||
1002102010011020,
|
||||
1002102010111020,
|
||||
|
||||
1002102010011020,
|
||||
#BPMCHANGE 135.94
|
||||
#SCROLL 0.99
|
||||
1002102010111020,
|
||||
#BPMCHANGE 134.19
|
||||
#SCROLL 1.01
|
||||
1002102010011020,
|
||||
#BPMCHANGE 134.88
|
||||
#SCROLL 1
|
||||
2101010202103030, //24
|
||||
|
||||
#BPMCHANGE 135
|
||||
2001100110011001,
|
||||
2001100110011110,
|
||||
2001100110011001,
|
||||
#BPMCHANGE 135.77
|
||||
#SCROLL 0.99
|
||||
2001100110011110,
|
||||
|
||||
#BPMCHANGE 135.79
|
||||
1002102010021120,
|
||||
#BPMCHANGE 133.81
|
||||
#SCROLL 1.01
|
||||
1002102010021121,
|
||||
#BPMCHANGE 134.66
|
||||
#SCROLL 1
|
||||
1002102010021120, //31
|
||||
|
||||
#BPMCHANGE 136.47
|
||||
#SCROLL 0.99
|
||||
12212212,
|
||||
#BPMCHANGE 135.14
|
||||
#SCROLL 1
|
||||
2010202010201110,
|
||||
#BPMCHANGE 133.42
|
||||
#SCROLL 1.01
|
||||
2000200020001111,
|
||||
|
||||
#BPMCHANGE 135
|
||||
#SCROLL 1
|
||||
1011202010122020,
|
||||
1011202010122020,
|
||||
1011202010122020,
|
||||
1011202010122020, //38
|
||||
|
||||
2011202011221020,
|
||||
2011202011221020,
|
||||
2011202011221020,
|
||||
|
||||
1111111111111111,
|
||||
#BPMCHANGE 135.77
|
||||
#SCROLL 0.99
|
||||
1111111111111111,
|
||||
#BPMCHANGE 135.72
|
||||
101110301110,
|
||||
#BPMCHANGE 133.53
|
||||
#SCROLL 1.01
|
||||
300010101000300300300300, //45
|
||||
|
||||
#BPMCHANGE 135
|
||||
#SCROLL 1
|
||||
#GOGOSTART
|
||||
1001201010021120,
|
||||
#BPMCHANGE 135.5
|
||||
1001201022021121,
|
||||
#BPMCHANGE 135.32
|
||||
1001201010021120,
|
||||
#BPMCHANGE 134.73
|
||||
1001201011111111,
|
||||
|
||||
1001201010021121,
|
||||
1001201022021120,
|
||||
#BPMCHANGE 135.44
|
||||
1001201010021121,
|
||||
|
||||
#BPMCHANGE 134.89
|
||||
12212212,
|
||||
2010202010201110,
|
||||
12212212,
|
||||
1111111110002000, //56
|
||||
#GOGOEND
|
||||
|
||||
#BPMCHANGE 135.19
|
||||
1011102020121120,
|
||||
1011102020121120,
|
||||
#BPMCHANGE 135.88
|
||||
#SCROLL 0.99
|
||||
1011102020121120,
|
||||
#BPMCHANGE 134.5
|
||||
#SCROLL 1
|
||||
3003000400300000,
|
||||
|
||||
#BPMCHANGE 134.85
|
||||
2012102010211120,
|
||||
2012102010211120,
|
||||
#BPMCHANGE 135.85
|
||||
#SCROLL 0.99
|
||||
2012102020121120,
|
||||
#BPMCHANGE 133.72
|
||||
#SCROLL 1.01
|
||||
3003000400300000, //64
|
||||
|
||||
#BPMCHANGE 135
|
||||
#SCROLL 1
|
||||
3,
|
||||
0,
|
||||
0,
|
||||
0,
|
||||
0,
|
||||
0, //70
|
||||
#END
|
||||
|
||||
|
||||
COURSE:Hard
|
||||
LEVEL:8
|
||||
BALLOON:6
|
||||
SCOREINIT:530,1930
|
||||
SCOREDIFF:143
|
||||
|
||||
#START
|
||||
#SCROLL 0.98
|
||||
1,
|
||||
#BPMCHANGE 134.25
|
||||
#SCROLL 1.01
|
||||
0000222200002222,
|
||||
#BPMCHANGE 134.57
|
||||
#SCROLL 1
|
||||
111,
|
||||
1111002011105080,
|
||||
|
||||
1001102010011010,
|
||||
#BPMCHANGE 135
|
||||
1001102010011010,
|
||||
1001102010011010,
|
||||
1001000300300000, //8
|
||||
|
||||
1001101010011010,
|
||||
1001101010111010,
|
||||
1001101010011010,
|
||||
1001101010221020,
|
||||
|
||||
1001101010011010,
|
||||
1001101010111010,
|
||||
#BPMCHANGE 136.3
|
||||
#SCROLL 0.99
|
||||
1001101010011010,
|
||||
#BPMCHANGE 133.72
|
||||
#SCROLL 1.01
|
||||
2101010101103030, //16
|
||||
|
||||
#BPMCHANGE 135
|
||||
#SCROLL 1
|
||||
1001101010011020,
|
||||
1001101010111020,
|
||||
1001101010011020,
|
||||
1001102010221020,
|
||||
|
||||
1001101010011020,
|
||||
#BPMCHANGE 135.94
|
||||
#SCROLL 0.99
|
||||
1001101010111020,
|
||||
#BPMCHANGE 134.19
|
||||
#SCROLL 1.01
|
||||
1001102010011020,
|
||||
#BPMCHANGE 134.88
|
||||
#SCROLL 1
|
||||
2101010101103030, //24
|
||||
|
||||
#BPMCHANGE 135
|
||||
1001100110011001,
|
||||
1001100110011001,
|
||||
1001100110011001,
|
||||
#BPMCHANGE 135.77
|
||||
#SCROLL 0.99
|
||||
1001100110011001,
|
||||
|
||||
#BPMCHANGE 135.79
|
||||
1001102010011020,
|
||||
#BPMCHANGE 133.81
|
||||
#SCROLL 1.01
|
||||
1001102010011020,
|
||||
#BPMCHANGE 134.66
|
||||
#SCROLL 1
|
||||
1001102010011020, //31
|
||||
|
||||
#BPMCHANGE 136.47
|
||||
#SCROLL 0.99
|
||||
12212212,
|
||||
#BPMCHANGE 135.14
|
||||
#SCROLL 1
|
||||
2010202010201110,
|
||||
#BPMCHANGE 133.42
|
||||
#SCROLL 1.01
|
||||
10105008, //34
|
||||
|
||||
#BPMCHANGE 135
|
||||
#SCROLL 1
|
||||
1001101012211010,
|
||||
1001101012211010,
|
||||
1001101012211010,
|
||||
1001101012212020,
|
||||
|
||||
1001101012211010,
|
||||
1001101012211010,
|
||||
1001101012212020, //41
|
||||
|
||||
1111111111111111,
|
||||
#BPMCHANGE 135.77
|
||||
#SCROLL 0.99
|
||||
1111111111111111,
|
||||
#BPMCHANGE 135.72
|
||||
101110301110, //AC3: 301110301110,
|
||||
#BPMCHANGE 133.53
|
||||
#SCROLL 1.01
|
||||
300010101000100100100100, //45
|
||||
|
||||
#BPMCHANGE 135
|
||||
#SCROLL 1
|
||||
#GOGOSTART
|
||||
1001102010011020,
|
||||
#BPMCHANGE 135.5
|
||||
1001102012011020,
|
||||
#BPMCHANGE 135.32
|
||||
1001102010011020,
|
||||
#BPMCHANGE 134.73
|
||||
1001102012011020,
|
||||
|
||||
1001102010011020,
|
||||
1001102012011020,
|
||||
#BPMCHANGE 135.44
|
||||
1001102010011020,
|
||||
|
||||
#BPMCHANGE 134.89
|
||||
12212212,
|
||||
2010202010201110,
|
||||
12212212,
|
||||
700000000000080000000000300000000000000000000000, //56
|
||||
#GOGOEND
|
||||
|
||||
#BPMCHANGE 135.19
|
||||
1001102010011020,
|
||||
1001102010011020,
|
||||
#BPMCHANGE 135.88
|
||||
#SCROLL 0.99
|
||||
1001102010011020,
|
||||
#BPMCHANGE 134.5
|
||||
#SCROLL 1
|
||||
1001000300300000,
|
||||
|
||||
#BPMCHANGE 134.85
|
||||
1001102010011020,
|
||||
1001102010011020,
|
||||
#BPMCHANGE 135.85
|
||||
#SCROLL 0.99
|
||||
1001102010011020,
|
||||
#BPMCHANGE 133.72
|
||||
#SCROLL 1.01
|
||||
1001000300300000, //64
|
||||
|
||||
#BPMCHANGE 135
|
||||
#SCROLL 1
|
||||
3,
|
||||
0,
|
||||
0,
|
||||
0,
|
||||
0,
|
||||
0, //70
|
||||
#END
|
||||
|
||||
|
||||
COURSE:Normal
|
||||
LEVEL:7
|
||||
BALLOON:
|
||||
SCOREINIT:800,3730
|
||||
SCOREDIFF:255
|
||||
|
||||
#START
|
||||
#SCROLL 0.98
|
||||
1,
|
||||
#BPMCHANGE 134.25
|
||||
#SCROLL 1.01
|
||||
0202,
|
||||
#BPMCHANGE 134.57
|
||||
#SCROLL 1
|
||||
1,
|
||||
1011,
|
||||
|
||||
1,
|
||||
#BPMCHANGE 135
|
||||
10000001,
|
||||
1,
|
||||
1001000300300000, //8
|
||||
|
||||
1000000000000011,
|
||||
1011,
|
||||
1,
|
||||
1000000010001011,
|
||||
|
||||
1,
|
||||
1000000000000011,
|
||||
#BPMCHANGE 136.3
|
||||
#SCROLL 0.99
|
||||
1001,
|
||||
#BPMCHANGE 133.72
|
||||
#SCROLL 1.01
|
||||
10000011, //16
|
||||
|
||||
#BPMCHANGE 135
|
||||
#SCROLL 1
|
||||
1000000010001011,
|
||||
1011,
|
||||
1000000010001011,
|
||||
1000000010111000,
|
||||
|
||||
1000000010001011,
|
||||
#BPMCHANGE 135.94
|
||||
#SCROLL 0.99
|
||||
1011,
|
||||
#BPMCHANGE 134.19
|
||||
#SCROLL 1.01
|
||||
1000001110000011,
|
||||
#BPMCHANGE 134.88
|
||||
#SCROLL 1
|
||||
10000011, //24
|
||||
|
||||
#BPMCHANGE 135
|
||||
1001100110011001,
|
||||
1001100110011001,
|
||||
1001100110011001,
|
||||
#BPMCHANGE 135.77
|
||||
#SCROLL 0.99
|
||||
1001100110011001,
|
||||
|
||||
#BPMCHANGE 135.79
|
||||
1000000000001011,
|
||||
#BPMCHANGE 133.81
|
||||
#SCROLL 1.01
|
||||
1011,
|
||||
#BPMCHANGE 134.66
|
||||
#SCROLL 1
|
||||
1000000000001011, //31
|
||||
|
||||
#BPMCHANGE 136.47
|
||||
#SCROLL 0.99
|
||||
10010010,
|
||||
#BPMCHANGE 135.14
|
||||
#SCROLL 1
|
||||
01001010,
|
||||
#BPMCHANGE 133.42
|
||||
#SCROLL 1.01
|
||||
100000000000100000000000500000000000000008000000,
|
||||
|
||||
#BPMCHANGE 135
|
||||
#SCROLL 1
|
||||
1001100010011000,
|
||||
1001100010011010,
|
||||
1001100010011000,
|
||||
1001100010011010, //38
|
||||
|
||||
1002200010022000,
|
||||
1002200010022020,
|
||||
1002200010022000,
|
||||
|
||||
1111,
|
||||
#BPMCHANGE 135.77
|
||||
#SCROLL 0.99
|
||||
50000008,
|
||||
#BPMCHANGE 135.72
|
||||
33,
|
||||
#BPMCHANGE 133.53
|
||||
#SCROLL 1.01
|
||||
30001111, //45
|
||||
|
||||
#BPMCHANGE 135
|
||||
#SCROLL 1
|
||||
#GOGOSTART
|
||||
1000000010011010,
|
||||
#BPMCHANGE 135.5
|
||||
1011,
|
||||
#BPMCHANGE 135.32
|
||||
1000000010011010,
|
||||
#BPMCHANGE 134.73
|
||||
1000000010222000,
|
||||
|
||||
1011,
|
||||
1000000010011010,
|
||||
#BPMCHANGE 135.44
|
||||
1011,
|
||||
|
||||
#BPMCHANGE 134.89
|
||||
10010010,
|
||||
01001010,
|
||||
10010010,
|
||||
500000000000000008000000300000000000000000000000, //56
|
||||
#GOGOEND
|
||||
|
||||
#BPMCHANGE 135.19
|
||||
1001100010011000,
|
||||
1001100010011000,
|
||||
#BPMCHANGE 135.88
|
||||
#SCROLL 0.99
|
||||
1001100010011000,
|
||||
#BPMCHANGE 134.5
|
||||
#SCROLL 1
|
||||
1001000300300000,
|
||||
|
||||
#BPMCHANGE 134.85
|
||||
1001101010011010,
|
||||
1001101010011010,
|
||||
#BPMCHANGE 135.85
|
||||
#SCROLL 0.99
|
||||
1001101010011010,
|
||||
#BPMCHANGE 133.72
|
||||
#SCROLL 1.01
|
||||
1001000300300000, //64
|
||||
|
||||
#BPMCHANGE 135
|
||||
#SCROLL 1
|
||||
3,
|
||||
0,
|
||||
0,
|
||||
0,
|
||||
0,
|
||||
0, //70
|
||||
#END
|
||||
|
||||
|
||||
COURSE:Easy
|
||||
LEVEL:5
|
||||
BALLOON:
|
||||
SCOREINIT:650,5610
|
||||
SCOREDIFF:240
|
||||
|
||||
#START
|
||||
#SCROLL 0.98
|
||||
1,
|
||||
#BPMCHANGE 134.25
|
||||
#SCROLL 1.01
|
||||
0202,
|
||||
#BPMCHANGE 134.57
|
||||
#SCROLL 1
|
||||
1,
|
||||
1011,
|
||||
|
||||
1,
|
||||
#BPMCHANGE 135
|
||||
10000001,
|
||||
1,
|
||||
1001000300300000, //8
|
||||
|
||||
1,
|
||||
1011,
|
||||
1,
|
||||
1011,
|
||||
|
||||
1,
|
||||
1,
|
||||
#BPMCHANGE 136.3
|
||||
#SCROLL 0.99
|
||||
1001,
|
||||
#BPMCHANGE 133.72
|
||||
#SCROLL 1.01
|
||||
1, //16
|
||||
|
||||
#BPMCHANGE 135
|
||||
#SCROLL 1
|
||||
1011,
|
||||
1011,
|
||||
1011,
|
||||
1011,
|
||||
|
||||
1011,
|
||||
#BPMCHANGE 135.94
|
||||
#SCROLL 0.99
|
||||
1011,
|
||||
#BPMCHANGE 134.19
|
||||
#SCROLL 1.01
|
||||
11,
|
||||
#BPMCHANGE 134.88
|
||||
#SCROLL 1
|
||||
1, //24
|
||||
|
||||
#BPMCHANGE 135
|
||||
1111,
|
||||
1,
|
||||
1111,
|
||||
#BPMCHANGE 135.77
|
||||
#SCROLL 0.99
|
||||
1,
|
||||
|
||||
#BPMCHANGE 135.79
|
||||
10000011,
|
||||
#BPMCHANGE 133.81
|
||||
#SCROLL 1.01
|
||||
1011,
|
||||
#BPMCHANGE 134.66
|
||||
#SCROLL 1
|
||||
10000011, //31
|
||||
|
||||
#BPMCHANGE 136.47
|
||||
#SCROLL 0.99
|
||||
10010010,
|
||||
#BPMCHANGE 135.14
|
||||
#SCROLL 1
|
||||
01001010,
|
||||
#BPMCHANGE 133.42
|
||||
#SCROLL 1.01
|
||||
500000000000000000000000000008000000000000000000,
|
||||
|
||||
#BPMCHANGE 135
|
||||
#SCROLL 1
|
||||
1111,
|
||||
10100011,
|
||||
1111,
|
||||
10100011, //38
|
||||
|
||||
1212,
|
||||
10201011,
|
||||
1212,
|
||||
|
||||
1111,
|
||||
#BPMCHANGE 135.77
|
||||
#SCROLL 0.99
|
||||
500000000000000000000000000008000000000000000000,
|
||||
#BPMCHANGE 135.72
|
||||
33,
|
||||
#BPMCHANGE 133.53
|
||||
#SCROLL 1.01
|
||||
30001111, //45
|
||||
|
||||
#BPMCHANGE 135
|
||||
#SCROLL 1
|
||||
#GOGOSTART
|
||||
10001011,
|
||||
#BPMCHANGE 135.5
|
||||
1,
|
||||
#BPMCHANGE 135.32
|
||||
10001011,
|
||||
#BPMCHANGE 134.73
|
||||
1,
|
||||
|
||||
10001011,
|
||||
1,
|
||||
#BPMCHANGE 135.44
|
||||
10001011,
|
||||
|
||||
#BPMCHANGE 134.89
|
||||
10010010,
|
||||
01001010,
|
||||
10010010,
|
||||
500000000000000000000008000000000000000000000000, //56
|
||||
#GOGOEND
|
||||
|
||||
#BPMCHANGE 135.19
|
||||
1111,
|
||||
1111,
|
||||
#BPMCHANGE 135.88
|
||||
#SCROLL 0.99
|
||||
1111,
|
||||
#BPMCHANGE 134.5
|
||||
#SCROLL 1
|
||||
1001000300300000,
|
||||
|
||||
#BPMCHANGE 134.85
|
||||
10101011,
|
||||
10101011,
|
||||
#BPMCHANGE 135.85
|
||||
#SCROLL 0.99
|
||||
10101011,
|
||||
#BPMCHANGE 133.72
|
||||
#SCROLL 1.01
|
||||
1001000300300000, //64
|
||||
|
||||
#BPMCHANGE 135
|
||||
#SCROLL 1
|
||||
3,
|
||||
0,
|
||||
0,
|
||||
0,
|
||||
0,
|
||||
0, //70
|
||||
#END
|
||||
Reference in New Issue
Block a user