This commit is contained in:
2026-03-04 23:59:27 +09:00
parent 6e0312f5b4
commit 4b4e2b8c98
1128 changed files with 668765 additions and 0 deletions

373
tja/1230.tja Normal file
View File

@@ -0,0 +1,373 @@
//TJADB Project
TITLE:Tsubasa Gravity
TITLEJA:ツバサグラビティ
SUBTITLE:--Anime "THE IDOLM@STER Shiny Colors"
SUBTITLEJA:アニメ「アイドルマスター シャイニーカラーズ」より
BPM:163
WAVE:Tsubasa Gravity.ogg
OFFSET:-0.867
DEMOSTART:59.572
COURSE:Oni
LEVEL:7
BALLOON:28,24
SCOREINIT:3000
SCOREDIFF:0
#START
2,
2,
20020202,
0,
1010202011102220,
10002002, //6
#GOGOSTART
7,
0008,
1011103000300040,
000000200200200000500000000000000000000008000000,
1010201020102011,
1010201120102022,
1022201000100050,
000000000000000008000000400000400000000000000000, //14
#GOGOEND
1000100011102010,
10110120,
1000101011102010,
1000101000102011,
1010201010002011,
11210022,
3,
600000000000000000000000000000000000000008000000, //22
0011200011102020,
10210120,
1000201011102020,
1000201000102011,
1010202010002011,
11220122,
30330360,
000000000000000008000000400000000000400000000000, //30
3000201010202210,
01214040,
3000201010202210,
2011102000102210,
1010201011200011,
1010201011200000,
1010101011102022,
1010101011102020,
500000000000000000000000000000000000000000000008,
0000000
#GOGOSTART
1, //40
0011201022102010,
0011201022102000,
1110201110202010,
0020201012102020,
1000201120102011,
2000202220102011,
1021203000300060,
000000000000000000000008000000000000000000100000, //48
0011201022102010,
0011201022102000,
1110201110202010,
0020200030300022,
1002102010021020,
1002102010021020,
600000000000000000000000000000000000000008000000,
#GOGOEND
4, //56
#GOGOSTART
7,
00082222,
#GOGOEND
0300,
0,
0, //61
#END
COURSE:Hard
LEVEL:4
BALLOON:25,35,18
SCOREINIT:5170
SCOREDIFF:0
#START
2,
2,
20020202,
0,
1122,
10002002, //6
#GOGOSTART
7,
0008,
11110102,
02220000,
10201120,
10201120,
11110105,
000000000000000008000000400000400000000000000000, //14
#GOGOEND
10101120,
10110000,
10101120,
10110001,
01101000,
11110020,
3,
600000000000000000000000000000000000000008000000, //22
00201120,
10210020,
10211120,
10210021,
01221020,
11220020,
30330360,
000000000000000008000000400000000000400000000000, //30
30202121,
01114040,
30202120,
10220000,
10211200,
10211200,
9,
0,
000000090000000000000000000000000000000000800000,
0000000
#GOGOSTART
1, //40
01202001,
01202000,
11220112,
00001122,
10011002,
20022000,
33340406,
000000000000000000000008000000000000000000100000, //48
01202001,
01202000,
11220122,
00002200,
3344,
3344,
600000000000000000000000000000000000000008000000,
#GOGOEND
4, //56
#GOGOSTART
7,
00082222,
#GOGOEND
0300,
0,
0, //61
#END
COURSE:Normal
LEVEL:4
BALLOON:15,23,13
SCOREINIT:5970
SCOREDIFF:0
#START
2,
2,
20020202,
0,
1111,
12, //6
#GOGOSTART
7,
0008,
30030303,
02220000,
10101110,
10101110,
11110105,
000000000008000000000000400000400000000000000000, //14
#GOGOEND
10101110,
10110000,
10101110,
10110001,
01101000,
10110000,
3,
600000000000000000000000000000000000000008000000, //22
00201110,
10220000,
10201110,
10220001,
01102000,
10220020,
30330360,
000000000000000008000000000000000000000000000000, //30
00101011,
02220000,
00101110,
20220000,
10111100,
20222200,
9,
0,
000000090000000000000000000000000000000000800000,
0000000
#GOGOSTART
1, //40
01102001,
01102000,
11110111,
00002220,
10011000,
20022000,
33330306,
000000000000000000000008000000000000000000100000, //48
01102001,
01102000,
11110111,
02,
3333,
4444,
600000000000000000000000000000000000000008000000,
#GOGOEND
4, //56
#GOGOSTART
7,
08,
#GOGOEND
0300,
0,
0, //61
#END
COURSE:Easy
LEVEL:3
BALLOON:11,19,11
SCOREINIT:12050
SCOREDIFF:0
#START
2,
2,
20000002,
0,
1011,
1, //6
#GOGOSTART
7,
08,
30030306,
000000000000000000000000000008000000000000000000,
1110,
1110,
5,
000008000000000000000000400000000000000000000000, //14
#GOGOEND
1110,
1,
1110,
10000001,
0110,
1,
3,
600000000000000000000000000000000000000008000000, //22
0110,
1,
1110,
10000001,
0110,
1,
6,
000000000000000008000000000000000000000000000000, //30
00101001,
01010000,
0110,
20020000,
10010000,
10010000,
9,
0,
000000090000000000000000000000000000000000800000,
0000000
#GOGOSTART
1, //40
00101001,
0110,
5,
000008000000000000000000100000000000100000000000,
11,
22,
30030306,
000000000000000000000008000000000000000000100000, //48
00101001,
0110,
5,
000008000000000000000000400000000000000000000000,
33,
33,
600000000000000000000000000000000000000008000000,
#GOGOEND
0, //56
#GOGOSTART
7,
08,
#GOGOEND
0300,
0,
0, //61
#END