This commit is contained in:
2026-03-04 23:59:27 +09:00
parent 6e0312f5b4
commit 4b4e2b8c98
1128 changed files with 668765 additions and 0 deletions

894
tja/1248.tja Normal file
View File

@@ -0,0 +1,894 @@
//TJADB Project
TITLE:Dai-Yuusha Tatsudon Saikyo no MyBachi Densetsu
TITLEJA:大勇者タツドン ~最強のマイバチ伝説~
SUBTITLE:--Kawagen Kollagen(BNSI)
SUBTITLEJA:Kawagen Kollagen(BNSI)
BPM:120
WAVE:Dai Yuusha Tatsudon Saikyo no MyBachi Densetsu.ogg
OFFSET:-1.912
DEMOSTART:10.900
//Shinuchi: 7770/4880/3300/1860
COURSE:Oni
LEVEL:8
BALLOON:15,15,15,10,40
SCOREINIT:660,2010
SCOREDIFF:163
#START
#BARLINEOFF
#MEASURE 2/4
#SCROLL 3
03000000,
#BARLINEON
#MEASURE 4/4
#BPMCHANGE 135
#SCROLL 1
300000200000200000200000500000000008000100100000,
1022202010222110,
1000100110111010,
600000000000000000000008000000000000000000000000,
#BARLINEOFF
#MEASURE 2/4
0, //6
#BARLINEON
#MEASURE 4/4
#BPMCHANGE 140
102020111110102020111110,
500000000000000000000008000010101000100010001000,
400000101010100220101010,
102020101010100220101010,
100020002000500000000000008000202000100010001000,
102020101010100220101010,
100020002000500000000000008000202000100010001000,
100000001000100010102000200200100100100010001000, //14
100020002000500000000000008000202000200020001000,
200000002000500000000008000000000000100000000000,
#MEASURE 2/4
500000000008000000000000, //17
#MEASURE 7/4
#BPMCHANGE 120
11102021110202,
100000100000100000000000200000
#SCROLL 3
#GOGOSTART
101010500000000008
#GOGOEND
#SCROLL 1
000000100000000000200000000000200000,
#MEASURE 2/4
1, //20
#MEASURE 4/4
#BPMCHANGE 140
400000101010100220101010,
100020002000500000000000008000202000100010001000,
102020101010100220101010,
100020002000500000000000008000000000000000000000, //24
#MEASURE 1/4
#BPMCHANGE 125
#SCROLL 0.5
7,
0,
000000080000,
#SCROLL 0.52
000000070000,
#SCROLL 0.58
0,
#SCROLL 0.64
0,
#SCROLL 0.72
080000,
#SCROLL 0.8
070000,
#SCROLL 0.89
0,
#SCROLL 0.98
0008,
#SCROLL 1.09
0007,
#SCROLL 1.22
0, //36
#BPMCHANGE 152
#SCROLL 1
000000080000,
1,
010000,
0100,
0100,
010000,
1001,
000001000000, //44
#MEASURE 5/8
#GOGOSTART
100200100202010,
200100200102020,
100200100201010,
200100200101010,
200200000000100000200020001000,
200100200102020,
100200100201010,
200100200202010, //52
#MEASURE 3/4
#SCROLL 4
600000000000000000000000000000000008,
#MEASURE 2/4
#SCROLL 1
01121122,
#MEASURE 3/4
#SCROLL 4
600000000000000000000000000000000008,
#MEASURE 2/4
#SCROLL 1
01121122,
#MEASURE 4/4
#BPMCHANGE 120
#SCROLL 4
7,
#MEASURE 3/4
#SCROLL 1
000000000000000000000000000000000008,
#GOGOEND
#MEASURE 1/4
0, //59
#MEASURE 5/8
#BPMCHANGE 152
#SCROLL 0.5
#GOGOSTART
3,
#SCROLL 1
0,
000000000202000,
200000200101010,
200200000000100000200020001000,
200100200102020,
100200100201010,
2, //67
#GOGOEND
#MEASURE 4/4
#BPMCHANGE 105
1022112010221022,
1202120210221220,
1022122010221220,
1022120210221200, //71
#MEASURE 5/8
#BPMCHANGE 152
#GOGOSTART
100200100202010,
200100200102020,
100200100201010,
20200,
#GOGOEND
0,
#SCROLL 4
#GOGOSTART
2,
#GOGOEND
#SCROLL 1
000000000000002,
#BARLINEOFF
020000000000000, //79
#MEASURE 4/4
#BPMCHANGE 105
100002000002000000200000002000
#SCROLL 1.5
000202020000202020,
#BARLINEON
#SCROLL 1
000050000000000000000008000000100000200200100200, //81
1000201010202122,
1000201010202122,
100000000000
#SCROLL 1.5
202020000202020000
#SCROLL 1
100000200100200200,
10211122, //85
100000000000200000100000100000100200200100
#SCROLL 1.5
202020,
#SCROLL 1
000
#SCROLL 1.5
202020000
#SCROLL 1
000000100000100000200000200000100000,
1120201010102020,
1120201030002000,
3000201110101010, //90
300000101010111111111110,
#BARLINEOFF
300000030000000300000003,
000000000000000001010101010101010101010101010101,
#SCROLL 1.5
020202
#SCROLL 1
010
#SCROLL 1.5
202020
#SCROLL 1
101010100
#SCROLL 2
300000000000000000000000, //94
#SCROLL 1
0,
#BPMCHANGE 120
00000000
#SCROLL 3
03000000,
#SCROLL 1
0,
0, //98
#END
COURSE:Hard
LEVEL:5
BALLOON:12,12,12,8,30
SCOREINIT:840,3670
SCOREDIFF:225
#START
#BARLINEOFF
#MEASURE 2/4
#SCROLL 2
03000000,
#BARLINEON
#MEASURE 4/4
#BPMCHANGE 135
#SCROLL 1
300000000000200000200000500000000008000000100000,
1022200010222010,
1000100010111010,
600000000000000000000008000000000000000000000000,
#BARLINEOFF
#MEASURE 2/4
0, //6
#BARLINEON
#MEASURE 4/4
#BPMCHANGE 140
100000000000500000008000100000000000500000008000,
500000000000000000000008000000000000100010001000,
400111100111,
100111100111,
100000000000500000000000008000000000100010001000,
100111100111,
100000000000500000000000008000000000100010001000,
100000000000500000000000008000000000100010001000, //14
100000000000500000000000008000000000200020002000,
200000000000500000000008000000000000100000000000,
#MEASURE 2/4
500000000008000000000000, //17
#MEASURE 7/4
#BPMCHANGE 120
10102021010202,
100000000000100000000000200000
#SCROLL 1.5
#GOGOSTART
500000000000000008
#GOGOEND
#SCROLL 1
000000100000000000200000000000200000,
#MEASURE 2/4
1, //20
#MEASURE 4/4
#BPMCHANGE 140
400111100111,
100000000000500000000000008000000000100010001000,
100111100111,
100000000000500000000000008000000000000000000000, //24
#MEASURE 1/4
#BPMCHANGE 125
#SCROLL 0.5
7,
0,
000000080000,
#SCROLL 0.52
000000070000,
#SCROLL 0.58
0,
#SCROLL 0.64
0,
#SCROLL 0.72
080000,
#SCROLL 0.8
070000,
#SCROLL 0.89
0,
#SCROLL 0.98
0008,
#SCROLL 1.09
0007,
#SCROLL 1.22
0, //36
#BPMCHANGE 152
#SCROLL 1
000000080000,
508,
005000000800,
0508,
000500008000,
005000800000,
500800000508,
000005800000, //44
#MEASURE 5/8
#GOGOSTART
12120,
21210,
12120,
21210,
2200102000,
21210,
12120,
21220, //52
#MEASURE 3/4
#SCROLL 2
600000000000000000000000000000000008,
#MEASURE 2/4
#SCROLL 1
0,
#MEASURE 3/4
#SCROLL 2
600000000000000000000000000000000008,
#MEASURE 2/4
#SCROLL 1
0,
#MEASURE 4/4
#BPMCHANGE 120
#SCROLL 2
7,
#MEASURE 3/4
#SCROLL 1
000000000000000000000000000000000008,
#GOGOEND
#MEASURE 1/4
0, //59
#MEASURE 5/8
#BPMCHANGE 152
#SCROLL 0.5
#GOGOSTART
3,
#SCROLL 1
0,
0,
10100,
2200102000,
21210,
12120,
2, //67
#GOGOEND
#MEASURE 4/4
#BPMCHANGE 105
1022022010220022,
2202020200220220,
1022022000220220,
1022020220220200, //71
#MEASURE 5/8
#BPMCHANGE 152
#GOGOSTART
12120,
21210,
12120,
2,
#GOGOEND
0,
#SCROLL 2
#GOGOSTART
2,
#GOGOEND
#SCROLL 1
000000000000002,
#BARLINEOFF
020000000000000, //79
#MEASURE 4/4
#BPMCHANGE 105
10000005,
#BARLINEON
000000000000000000000008000000100000200000000000, //81
10211020,
10211020,
10211020,
10211120, //85
10211020,
10211020,
30211120,
30213020,
30211011, //90
300000000000100010001000500000000000000008000000,
#BARLINEOFF
300000030000000300000003,
000000000000000005000000000000000000000000000000,
000008
#SCROLL 2
300000, //94
#SCROLL 1
0,
#BPMCHANGE 120
00000000
#SCROLL 2.5
03000000,
#SCROLL 1
0,
0, //98
#END
COURSE:Normal
LEVEL:5
BALLOON:20
SCOREINIT:960,6100
SCOREDIFF:348
#START
#BARLINEOFF
#MEASURE 2/4
#SCROLL 1.5
03000000,
#BARLINEON
#MEASURE 4/4
#BPMCHANGE 135
#SCROLL 1
300000000000000000000000500000000008000000000000,
1212,
10101110,
600000000000000000000008000000000000000000000000,
#BARLINEOFF
#MEASURE 2/4
1, //6
#BARLINEON
#MEASURE 4/4
#BPMCHANGE 140
1111,
500000000000000000000008000000000000000000000000,
00002222,
0200,
00002222,
03000000,
00002222,
02200010, //14
10103333,
33330222,
#MEASURE 2/4
2, //17
#MEASURE 7/4
#BPMCHANGE 120
10002001000200,
100000000000000000000000000000
#GOGOSTART
100000500000000008
#GOGOEND
000000500000000000000000080000200000,
#MEASURE 2/4
2220, //20
#MEASURE 4/4
#BPMCHANGE 140
00002222,
00300220,
03030022,
0200, //24
#MEASURE 1/4
#BPMCHANGE 125
#SCROLL 0.52
500000000008,
#SCROLL 0.64
500000000008,
#SCROLL 0.80
58,
#SCROLL 0.52
000000050008,
#SCROLL 0.64
500000000008,
#SCROLL 0.80
500000000008,
#SCROLL 0.89
580000000000,
#SCROLL 0.52
005000000008,
#SCROLL 0.64
500000000008,
#SCROLL 0.80
508,
#SCROLL 0.52
000000000508,
#SCROLL 0.64
500000000008, //36
#BPMCHANGE 152
#SCROLL 0.8
508,
#SCROLL 1
508,
005000000800,
0508,
000500008000,
005000800000,
500800000508,
000005800000, //44
#MEASURE 5/8
#GOGOSTART
11100,
22200,
11100,
22200,
40100,
22200,
11100,
2, //52
#MEASURE 3/4
#SCROLL 2
600000000000000000000000000000000008,
#MEASURE 2/4
#SCROLL 1
0,
#MEASURE 3/4
#SCROLL 2
600000000000000000000000000000000008,
#MEASURE 2/4
#SCROLL 1
0,
#MEASURE 4/4
#BPMCHANGE 120
#SCROLL 2
7,
#MEASURE 3/4
#SCROLL 1
000000000000000000000000000000000008,
#GOGOEND
#MEASURE 1/4
0, //59
#MEASURE 5/8
#BPMCHANGE 152
#SCROLL 0.5
#GOGOSTART
3,
#SCROLL 1
0,
0,
10100,
40100,
22200,
1000000200,
2002002000, //67
#GOGOEND
#MEASURE 4/4
#BPMCHANGE 105
00000022,
4,
000004000000000000000000,
00022220, //71
#MEASURE 5/8
#BPMCHANGE 152
#GOGOSTART
11100,
22200,
11100,
2,
#GOGOEND
0,
#SCROLL 1.5
#GOGOSTART
2,
#GOGOEND
#SCROLL 1
0,
#BARLINEOFF
2, //79
#MEASURE 4/4
#BPMCHANGE 105
1000000000
#SCROLL 1.3
020020,
#BARLINEON
#SCROLL 1
0, //81
10011000,
10011000,
1000
#SCROLL 1.3
200200
#SCROLL 1
000000,
10011000, //85
1001100
#SCROLL 1.3
4,
#SCROLL 1
0
#SCROLL 1.3
400
#SCROLL 1
001010000000,
30011000,
33,
3033, //90
300000000000600000000000000000000000000008000000,
#BARLINEOFF
300000030000000300000003,
0,
#SCROLL 1.3
40040
#SCROLL 1
00030000000, //94
0,
#BPMCHANGE 120
00000000
#SCROLL 2
03000000,
#SCROLL 1
0,
0, //98
#END
COURSE:Easy
LEVEL:4
BALLOON:15
SCOREINIT:930,10300
SCOREDIFF:558
#START
#BARLINEOFF
#MEASURE 2/4
03000000,
#BARLINEON
#MEASURE 4/4
#BPMCHANGE 135
300000000000000000000000500000000008000000000000,
11,
1011,
600000000000000000000008000000000000000000000000,
#BARLINEOFF
#MEASURE 2/4
1, //6
#BARLINEON
#MEASURE 4/4
#BPMCHANGE 140
1110,
500000000000000000000008000000000000000000000000,
0022,
0200,
0022,
03000000,
0022,
0200, //14
1160,
000000000000000008000000000000000000000000000000,
#MEASURE 2/4
0, //17
#MEASURE 7/4
#BPMCHANGE 120
11,
100000000000000000000000000000
#GOGOSTART
500000000000000008
#GOGOEND
000000500000000000000000080000000000,
#MEASURE 2/4
0, //20
#MEASURE 4/4
#BPMCHANGE 140
0022,
00300200,
03030020,
0200, //24
#MEASURE 1/4
#BPMCHANGE 125
#SCROLL 0.52
500000000008,
#SCROLL 0.64
500000000008,
#SCROLL 0.80
58,
#SCROLL 0.52
000000050008,
#SCROLL 0.64
500000000008,
#SCROLL 0.80
500000000008,
#SCROLL 0.89
580000000000,
#SCROLL 0.52
005000000008,
#SCROLL 0.64
500000000008,
#SCROLL 0.80
508,
#SCROLL 0.52
000000000508,
#SCROLL 0.64
500000000008, //36
#BPMCHANGE 152
#SCROLL 0.8
508,
#SCROLL 1
508,
005000000800,
0508,
000500008000,
005000800000,
500800000508,
000005800000, //44
#MEASURE 5/8
#GOGOSTART
10100,
20200,
10100,
20200,
4,
20200,
10100,
2, //52
#MEASURE 3/4
#SCROLL 2
600000000000000000000000000000000008,
#MEASURE 2/4
#SCROLL 1
0,
#MEASURE 3/4
#SCROLL 2
600000000000000000000000000000000008,
#MEASURE 2/4
#SCROLL 1
0,
#MEASURE 4/4
#BPMCHANGE 120
#SCROLL 2
7,
#MEASURE 3/4
#SCROLL 1
000000000000000000000000000000000008,
#GOGOEND
#MEASURE 1/4
0, //59
#MEASURE 5/8
#BPMCHANGE 152
#SCROLL 0.5
#GOGOSTART
3,
#SCROLL 1
0,
0,
0,
4,
20200,
1,
0, //67
#GOGOEND
#MEASURE 4/4
#BPMCHANGE 105
0002,
4,
000004000000000000000000,
0, //71
#MEASURE 5/8
#BPMCHANGE 152
#GOGOSTART
10100,
20200,
10100,
2,
#GOGOEND
0,
#SCROLL 1.3
#GOGOSTART
2,
#GOGOEND
#SCROLL 1
0,
#BARLINEOFF
2, //79
#MEASURE 4/4
#BPMCHANGE 105
1000000000020020,
#BARLINEON
0, //81
11,
11,
0000200200000000,
11, //85
10001004,
0400000010000000,
31,
33,
3033, //90
300000000000600000000000000000000000000008000000,
#BARLINEOFF
300000030000000300000003,
0,
4004000030000000, //94
0,
#BPMCHANGE 120
00000000
#SCROLL 1.5
03000000,
#SCROLL 1
0,
0, //98
#END