tja
This commit is contained in:
445
tja/1254.tja
Normal file
445
tja/1254.tja
Normal file
@@ -0,0 +1,445 @@
|
||||
//TJADB Project
|
||||
TITLE:Nameless Story
|
||||
TITLEJA:Nameless Story
|
||||
SUBTITLE:--That Time I Got Reincarnated As A Slime
|
||||
SUBTITLEJA:「転生したらスライムだった件」より
|
||||
BPM:195
|
||||
WAVE:Nameless Story.ogg
|
||||
OFFSET:-1.821
|
||||
DEMOSTART:58.354
|
||||
|
||||
|
||||
COURSE:Oni
|
||||
LEVEL:8
|
||||
BALLOON:21
|
||||
SCOREINIT:2220
|
||||
SCOREDIFF:0
|
||||
|
||||
#START
|
||||
#MEASURE 2/4
|
||||
#BARLINEOFF
|
||||
0002,
|
||||
#MEASURE 4/4
|
||||
#BARLINEON
|
||||
02202202,
|
||||
0222,
|
||||
22020000,
|
||||
00002202,
|
||||
0020200020020020,
|
||||
2000220
|
||||
#GOGOSTART
|
||||
7, //7
|
||||
|
||||
0,
|
||||
00000801,
|
||||
0010200010102011,
|
||||
1020101110201010,
|
||||
|
||||
0010112010102011,
|
||||
11211121,
|
||||
0010112010102011,
|
||||
1020101110201020, //15
|
||||
#GOGOEND
|
||||
|
||||
10202021,
|
||||
2000200020001011,
|
||||
11202021,
|
||||
20203300,
|
||||
|
||||
101010200000100100200100,
|
||||
12121010,
|
||||
10112112,
|
||||
1020202000102220, //23
|
||||
|
||||
10112121,
|
||||
1000102010101110,
|
||||
30230230,
|
||||
3030003030203022,
|
||||
|
||||
10101121,
|
||||
12121010,
|
||||
301010301212,
|
||||
100000002000000020000000100100100000200000000000, //31
|
||||
|
||||
12112101,
|
||||
200000100000100100100000100000001000000010000000,
|
||||
3022203000203000,
|
||||
333444,
|
||||
|
||||
1000102010222010,
|
||||
01121210,
|
||||
1000102010222010,
|
||||
0010102010222000, //39
|
||||
|
||||
1000201000102220,
|
||||
1000201000102220,
|
||||
100000000000100000500000000000000000000008000000,
|
||||
1000201011200020,
|
||||
|
||||
10210121,
|
||||
000100200000101010200000,
|
||||
1010222020101110,
|
||||
40400000111000
|
||||
#GOGOSTART
|
||||
10, //47
|
||||
|
||||
0010201011102011,
|
||||
1010201011101000,
|
||||
100100100000200000500000000000000000000000000008,
|
||||
0000000011102010,
|
||||
|
||||
0010201011102011,
|
||||
1010200011101000,
|
||||
1120001120001120,
|
||||
0021200011102210, //55
|
||||
|
||||
0010201011102011,
|
||||
1010201022202010,
|
||||
0010201011102011,
|
||||
1010201000222030,
|
||||
|
||||
0022203000222030,
|
||||
01201121,
|
||||
000000100000500000000000000000000000000000000008,
|
||||
0000202010222030, //63
|
||||
|
||||
0022203000222030,
|
||||
4000400022201040,
|
||||
04600000,
|
||||
000000000000000008000000000000000000000000300000,
|
||||
03600000,
|
||||
000000000008000000000000000000000000000000000000, //69
|
||||
#GOGOEND
|
||||
|
||||
0020201000202011,
|
||||
1022202011201020,
|
||||
03303343,
|
||||
0, //73
|
||||
#END
|
||||
|
||||
|
||||
COURSE:Hard
|
||||
LEVEL:5
|
||||
BALLOON:17,12,12,16
|
||||
SCOREINIT:4050
|
||||
SCOREDIFF:0
|
||||
|
||||
#START
|
||||
#MEASURE 2/4
|
||||
#BARLINEOFF
|
||||
0002,
|
||||
#MEASURE 4/4
|
||||
#BARLINEON
|
||||
00202002,
|
||||
0222,
|
||||
20020000,
|
||||
00002002,
|
||||
0220,
|
||||
2000200
|
||||
#GOGOSTART
|
||||
9, //7
|
||||
|
||||
0,
|
||||
0009000000800000,
|
||||
00000001,
|
||||
01110111,
|
||||
|
||||
01101021,
|
||||
01111011,
|
||||
01101021,
|
||||
01111011, //15
|
||||
#GOGOEND
|
||||
|
||||
1222,
|
||||
20202011,
|
||||
10202020,
|
||||
20204400,
|
||||
|
||||
10101101,
|
||||
0111,
|
||||
10110115,
|
||||
000000000008000000000000000000000000000000000000, //23
|
||||
|
||||
10110101,
|
||||
00101111,
|
||||
7,
|
||||
0800,
|
||||
|
||||
10101101,
|
||||
0111,
|
||||
111111,
|
||||
600000000000000000000008000000000000000000000000, //31
|
||||
|
||||
10110101,
|
||||
0010100010010010,
|
||||
7,
|
||||
0800,
|
||||
|
||||
10201101,
|
||||
0211,
|
||||
10110101,
|
||||
00000220, //39
|
||||
|
||||
10110120,
|
||||
10110120,
|
||||
100000000000100000500000000000000000000000000008,
|
||||
01,
|
||||
|
||||
9,
|
||||
0009000000800000,
|
||||
0,
|
||||
4400110
|
||||
#GOGOSTART
|
||||
1, //47
|
||||
|
||||
01101121,
|
||||
01101010,
|
||||
100000100000000000500000000000000000000000000008,
|
||||
00001101,
|
||||
|
||||
01101121,
|
||||
01101010,
|
||||
33033033,
|
||||
00001101, //55
|
||||
|
||||
01101121,
|
||||
02220001,
|
||||
01101121,
|
||||
01110333,
|
||||
|
||||
03330333,
|
||||
00101101,
|
||||
000000100000500000000000000000000000000000000008,
|
||||
00000333, //63
|
||||
|
||||
03330333,
|
||||
40404404,
|
||||
04600000,
|
||||
000000000000000008000000000000000000000000300000,
|
||||
03600000,
|
||||
000000000008000000000000000000000000000000000000, //69
|
||||
#GOGOEND
|
||||
|
||||
02210221,
|
||||
02221122,
|
||||
03303343,
|
||||
0, //73
|
||||
#END
|
||||
|
||||
|
||||
COURSE:Normal
|
||||
LEVEL:4
|
||||
BALLOON:12,8,8,11,8
|
||||
SCOREINIT:9700
|
||||
SCOREDIFF:0
|
||||
|
||||
#START
|
||||
#MEASURE 2/4
|
||||
#BARLINEOFF
|
||||
0002,
|
||||
#MEASURE 4/4
|
||||
#BARLINEON
|
||||
00000002,
|
||||
02,
|
||||
2,
|
||||
00000002,
|
||||
0,
|
||||
2000200
|
||||
#GOGOSTART
|
||||
9, //7
|
||||
|
||||
0,
|
||||
0009000000800000,
|
||||
00000001,
|
||||
00010001,
|
||||
|
||||
00101001,
|
||||
00101001,
|
||||
00101001,
|
||||
0111, //15
|
||||
#GOGOEND
|
||||
|
||||
1,
|
||||
2,
|
||||
2,
|
||||
24,
|
||||
|
||||
10000001,
|
||||
01,
|
||||
10000001,
|
||||
0, //23
|
||||
|
||||
10000001,
|
||||
01,
|
||||
7,
|
||||
0800,
|
||||
|
||||
10000001,
|
||||
0110,
|
||||
33,
|
||||
600000000000000000000008000000000000000000000000, //31
|
||||
|
||||
10000001,
|
||||
0110,
|
||||
7,
|
||||
0800,
|
||||
|
||||
10001001,
|
||||
0011,
|
||||
10010001,
|
||||
0, //39
|
||||
|
||||
10020000,
|
||||
10020000,
|
||||
500000000000000000000000000000000000000000000008,
|
||||
01,
|
||||
|
||||
9,
|
||||
0009000000800000,
|
||||
0,
|
||||
4000000
|
||||
#GOGOSTART
|
||||
1, //47
|
||||
|
||||
00101001,
|
||||
0111,
|
||||
500000000000000000000000000000000000000000000008,
|
||||
00000001,
|
||||
|
||||
00101001,
|
||||
0111,
|
||||
30030030,
|
||||
00000002, //55
|
||||
|
||||
00202002,
|
||||
00200001,
|
||||
00101001,
|
||||
00100003,
|
||||
|
||||
00030003,
|
||||
00202005,
|
||||
000000000000000000000000000000000000000000000008,
|
||||
00000003, //63
|
||||
|
||||
00030000,
|
||||
40404006,
|
||||
0,
|
||||
000000000000000008000000000000000000000000600000,
|
||||
0,
|
||||
000000000008000000000000000000000000000000000000, //69
|
||||
#GOGOEND
|
||||
|
||||
02010207,
|
||||
00000008,
|
||||
03003003,
|
||||
0, //73
|
||||
#END
|
||||
|
||||
|
||||
COURSE:Easy
|
||||
LEVEL:3
|
||||
BALLOON:10,7,7,9,5
|
||||
SCOREINIT:15020
|
||||
SCOREDIFF:0
|
||||
|
||||
#START
|
||||
#MEASURE 2/4
|
||||
#BARLINEOFF
|
||||
0002,
|
||||
#MEASURE 4/4
|
||||
#BARLINEON
|
||||
0,
|
||||
0,
|
||||
2,
|
||||
00000002,
|
||||
0,
|
||||
2000000
|
||||
#GOGOSTART
|
||||
9, //7
|
||||
|
||||
0,
|
||||
0009000000800000,
|
||||
0,
|
||||
00000001,
|
||||
|
||||
01,
|
||||
00000001,
|
||||
01,
|
||||
01, //15
|
||||
#GOGOEND
|
||||
|
||||
1,
|
||||
2,
|
||||
2,
|
||||
2,
|
||||
|
||||
10000001,
|
||||
0,
|
||||
10000001,
|
||||
0, //23
|
||||
|
||||
10000001,
|
||||
0,
|
||||
7,
|
||||
0800,
|
||||
|
||||
10000001,
|
||||
01,
|
||||
33,
|
||||
600000000000000000000008000000000000000000000000, //31
|
||||
|
||||
10000001,
|
||||
01,
|
||||
7,
|
||||
0800,
|
||||
|
||||
10000001,
|
||||
01,
|
||||
10000001,
|
||||
0, //39
|
||||
|
||||
10010000,
|
||||
10010000,
|
||||
500000000000000000000000000000000000000000000008,
|
||||
01,
|
||||
|
||||
9,
|
||||
0009000000800000,
|
||||
0,
|
||||
0000000
|
||||
#GOGOSTART
|
||||
1, //47
|
||||
|
||||
00001001,
|
||||
0011,
|
||||
500000000000000000000000000000000000000000000008,
|
||||
00000001,
|
||||
|
||||
00001001,
|
||||
01,
|
||||
30030030,
|
||||
00000002, //55
|
||||
|
||||
00002002,
|
||||
00000001,
|
||||
00001001,
|
||||
00000003,
|
||||
|
||||
00030003,
|
||||
00000005,
|
||||
000000000000000000000000000000000000000000000008,
|
||||
00000003, //63
|
||||
|
||||
00030000,
|
||||
40004006,
|
||||
0,
|
||||
000000000000000008000000000000000000000000600000,
|
||||
0,
|
||||
000000000008000000000000000000000000000000000000, //69
|
||||
#GOGOEND
|
||||
|
||||
00010007,
|
||||
00000008,
|
||||
03003003,
|
||||
0, //73
|
||||
#END
|
||||
Reference in New Issue
Block a user