tja
This commit is contained in:
726
tja/1255.tja
Normal file
726
tja/1255.tja
Normal file
@@ -0,0 +1,726 @@
|
||||
//TJADB Project
|
||||
TITLE:Dennou-genya no Hoshigotoyo
|
||||
TITLEJA:電脳幻夜の星言詠
|
||||
SUBTITLE:--yuichi NAGAO
|
||||
SUBTITLEJA:yuichi NAGAO
|
||||
BPM:237
|
||||
WAVE:Dennou-genya no Hoshigotoyo.ogg
|
||||
OFFSET:-1.009
|
||||
DEMOSTART:24.802
|
||||
|
||||
//shinuchi: 3800/2450/1680/1050
|
||||
|
||||
COURSE:Oni
|
||||
LEVEL:10
|
||||
BALLOON:5
|
||||
SCOREINIT:400,1110
|
||||
SCOREDIFF:95
|
||||
|
||||
#START
|
||||
#MEASURE 3/4
|
||||
100022202000,
|
||||
#MEASURE 4/4
|
||||
20012222,
|
||||
#MEASURE 3/4
|
||||
100022202000,
|
||||
#MEASURE 4/4
|
||||
100000111222, //4
|
||||
|
||||
1000202220102000,
|
||||
200100000120200010100200,
|
||||
1022102010221020,
|
||||
100200101010201010200000, //8
|
||||
|
||||
#MEASURE 3/4
|
||||
100022202000,
|
||||
#MEASURE 4/4
|
||||
21012222,
|
||||
#MEASURE 3/4
|
||||
100022202000,
|
||||
#MEASURE 4/4
|
||||
21012211, //12
|
||||
|
||||
#MEASURE 3/4
|
||||
100022202020,
|
||||
#MEASURE 4/4
|
||||
1000102010221020,
|
||||
1022201022201020,
|
||||
#MEASURE 3/4
|
||||
121121121, //16
|
||||
|
||||
100022202000,
|
||||
#MEASURE 4/4
|
||||
2010001020201120,
|
||||
1022101022102000,
|
||||
#MEASURE 3/4
|
||||
100000200000000000200200200000001000, //20
|
||||
|
||||
201101202,
|
||||
101101202,
|
||||
100010200010200011,
|
||||
212122, //24
|
||||
|
||||
#MEASURE 4/4
|
||||
121212111111,
|
||||
#MEASURE 6/4
|
||||
700000008000000022222020, //26
|
||||
|
||||
#MEASURE 4/4
|
||||
3022102010201220,
|
||||
1020102012201220,
|
||||
500000000000000000000000000008000000200000200000,
|
||||
1022102011112010,
|
||||
|
||||
1022202020122020,
|
||||
100000200200200000200000101010100000200000200000,
|
||||
1020102210221020,
|
||||
100200200200100200200200100000101010100000200000, //34
|
||||
|
||||
100010001000100000200000200200200200100000500000,
|
||||
000008000000100000100000100200100000100000000000,
|
||||
314141,
|
||||
301030203021,
|
||||
|
||||
1020121020121020,
|
||||
1022201022102000,
|
||||
03003003,
|
||||
0020301022222020,
|
||||
112112,
|
||||
121121121111, //44
|
||||
|
||||
30112211,
|
||||
12211122,
|
||||
11122112,
|
||||
2220201110102010,
|
||||
|
||||
100200000200100100220100,
|
||||
221221211211,
|
||||
11212202,
|
||||
100100202010202010200000, //52
|
||||
|
||||
1000222020202020,
|
||||
100200100222100200100100,
|
||||
200100100100200100200211,
|
||||
11212020,
|
||||
|
||||
40140144,
|
||||
000200000100200100100111,
|
||||
20140144,
|
||||
000200000100200100100111, //60
|
||||
|
||||
20140144,
|
||||
0020121010221010,
|
||||
4011104011104040,
|
||||
1111111122222222,
|
||||
11120120,
|
||||
2010001120002000, //66
|
||||
|
||||
3021,
|
||||
20120020,
|
||||
11,
|
||||
1222,
|
||||
|
||||
11,
|
||||
10120020,
|
||||
11,
|
||||
21, //74
|
||||
|
||||
#MEASURE 3/4
|
||||
122,
|
||||
100200222,
|
||||
100000200000202222,
|
||||
#MEASURE 5/4
|
||||
100200200200222,
|
||||
|
||||
#MEASURE 4/4
|
||||
12212212,
|
||||
21221212,
|
||||
11111111,
|
||||
111111111111,
|
||||
3,
|
||||
#MEASURE 6/4
|
||||
000000000120, //84
|
||||
|
||||
#MEASURE 4/4
|
||||
#GOGOSTART
|
||||
3011201011201011,
|
||||
2010102011112210,
|
||||
1011201011202010,
|
||||
1110111022222020,
|
||||
|
||||
1011201011201020,
|
||||
1110111022222020,
|
||||
1111201111201111,
|
||||
1111211121112000, //92
|
||||
|
||||
3011201011201020,
|
||||
1110221022102020,
|
||||
1011201011202210,
|
||||
1111211121112000,
|
||||
|
||||
1011201011201020,
|
||||
100100100100200000200000101010101010200000000000,
|
||||
03003003,
|
||||
0022100000300011, //100
|
||||
#GOGOEND
|
||||
|
||||
1122220000100000,
|
||||
3000201022102222,
|
||||
112122112122,
|
||||
121212111111, //104
|
||||
|
||||
#GOGOSTART
|
||||
00300300,
|
||||
300000000300111100300111,
|
||||
10300300,
|
||||
30030030,
|
||||
|
||||
3000102011201020,
|
||||
1120112010212020,
|
||||
101110101110,
|
||||
101210101210, //112
|
||||
|
||||
111010101010101010201020,
|
||||
112010101010102010201020,
|
||||
1,
|
||||
#GOGOEND
|
||||
3,
|
||||
0, //117
|
||||
#END
|
||||
|
||||
|
||||
COURSE:Hard
|
||||
LEVEL:8
|
||||
BALLOON:4
|
||||
SCOREINIT:470,1850
|
||||
SCOREDIFF:123
|
||||
|
||||
#START
|
||||
#MEASURE 3/4
|
||||
102220,
|
||||
#MEASURE 4/4
|
||||
2022,
|
||||
#MEASURE 3/4
|
||||
102220,
|
||||
#MEASURE 4/4
|
||||
2011, //4
|
||||
|
||||
10020110,
|
||||
21011010,
|
||||
10121210,
|
||||
11101020, //8
|
||||
|
||||
#MEASURE 3/4
|
||||
102220,
|
||||
#MEASURE 4/4
|
||||
20022020,
|
||||
#MEASURE 3/4
|
||||
102220,
|
||||
#MEASURE 4/4
|
||||
20012011, //12
|
||||
|
||||
#MEASURE 3/4
|
||||
102220,
|
||||
#MEASURE 4/4
|
||||
10110210,
|
||||
10210210,
|
||||
#MEASURE 3/4
|
||||
101101101, //16
|
||||
|
||||
102220,
|
||||
#MEASURE 4/4
|
||||
20011010,
|
||||
20120120,
|
||||
#MEASURE 3/4
|
||||
120020, //20
|
||||
|
||||
122,
|
||||
122,
|
||||
101201201,
|
||||
202222, //24
|
||||
|
||||
#MEASURE 4/4
|
||||
101010111100,
|
||||
#MEASURE 6/4
|
||||
700080002220, //26
|
||||
|
||||
#MEASURE 4/4
|
||||
30101210,
|
||||
12121010,
|
||||
500000000000000000000000000008000000000000000000,
|
||||
1000100011100010,
|
||||
|
||||
10202120,
|
||||
1000200011100020,
|
||||
10121010,
|
||||
1020102010111000, //34
|
||||
|
||||
10222011,
|
||||
01111010,
|
||||
344,
|
||||
333,
|
||||
|
||||
10110110,
|
||||
12012020,
|
||||
03003003,
|
||||
0000111020002000,
|
||||
112112,
|
||||
101101101100, //44
|
||||
|
||||
30102010,
|
||||
22201120,
|
||||
10122010,
|
||||
20220110,
|
||||
|
||||
22021120,
|
||||
202201101100,
|
||||
10202202,
|
||||
100202202200, //52
|
||||
|
||||
10202220,
|
||||
10101210,
|
||||
21112020,
|
||||
11202020,
|
||||
|
||||
40040044,
|
||||
02002010,
|
||||
40040044,
|
||||
02002010, //60
|
||||
|
||||
40040044,
|
||||
02002010,
|
||||
40040044,
|
||||
500000000000000000000000000008000000000000000000,
|
||||
10020020,
|
||||
21012020, //66
|
||||
|
||||
32,
|
||||
20020020,
|
||||
1,
|
||||
0222,
|
||||
|
||||
1,
|
||||
10020020,
|
||||
1,
|
||||
2, //74
|
||||
|
||||
#MEASURE 3/4
|
||||
122,
|
||||
122,
|
||||
102022,
|
||||
#MEASURE 5/4
|
||||
12222,
|
||||
|
||||
#MEASURE 4/4
|
||||
12012012,
|
||||
01201210,
|
||||
11111111,
|
||||
500000000000000000000000000008000000000000000000,
|
||||
3,
|
||||
#MEASURE 6/4
|
||||
000000000220, //84
|
||||
|
||||
#MEASURE 4/4
|
||||
#GOGOSTART
|
||||
30211211,
|
||||
2000100011102010,
|
||||
10210221,
|
||||
1010101022202000,
|
||||
|
||||
11211210,
|
||||
2010201022202000,
|
||||
12212212,
|
||||
22121210, //92
|
||||
|
||||
30210212,
|
||||
1110201020102000,
|
||||
11211220,
|
||||
1110201020102000,
|
||||
|
||||
11211210,
|
||||
1010202011102000,
|
||||
03003003,
|
||||
00300303, //100
|
||||
#GOGOEND
|
||||
|
||||
0022200000100000,
|
||||
30212100,
|
||||
111222,
|
||||
101010111111, //104
|
||||
|
||||
#GOGOSTART
|
||||
00300300,
|
||||
30030030,
|
||||
00300300,
|
||||
30030030,
|
||||
|
||||
30121212,
|
||||
1110101010102000,
|
||||
111111,
|
||||
101110101110, //112
|
||||
|
||||
101111101010,
|
||||
101111101010,
|
||||
1,
|
||||
#GOGOEND
|
||||
3,
|
||||
0, //117
|
||||
#END
|
||||
|
||||
|
||||
COURSE:Normal
|
||||
LEVEL:7
|
||||
BALLOON:3
|
||||
SCOREINIT:540,2790
|
||||
SCOREDIFF:148
|
||||
|
||||
#START
|
||||
#MEASURE 3/4
|
||||
102,
|
||||
#MEASURE 4/4
|
||||
2,
|
||||
#MEASURE 3/4
|
||||
102,
|
||||
#MEASURE 4/4
|
||||
2, //4
|
||||
|
||||
1001,
|
||||
01001010,
|
||||
1011,
|
||||
11101020, //8
|
||||
|
||||
#MEASURE 3/4
|
||||
102,
|
||||
#MEASURE 4/4
|
||||
2022,
|
||||
#MEASURE 3/4
|
||||
102,
|
||||
#MEASURE 4/4
|
||||
20002011, //12
|
||||
|
||||
#MEASURE 3/4
|
||||
102,
|
||||
#MEASURE 4/4
|
||||
10010010,
|
||||
10110110,
|
||||
#MEASURE 3/4
|
||||
101100, //16
|
||||
|
||||
102,
|
||||
#MEASURE 4/4
|
||||
2011,
|
||||
20020020,
|
||||
#MEASURE 3/4
|
||||
020020, //20
|
||||
|
||||
122,
|
||||
122,
|
||||
122,
|
||||
102220, //24
|
||||
|
||||
#MEASURE 4/4
|
||||
111110,
|
||||
#MEASURE 6/4
|
||||
708022, //26
|
||||
|
||||
#MEASURE 4/4
|
||||
30101110,
|
||||
11101010,
|
||||
500000000000000000000000000008000000000000000000,
|
||||
10101101,
|
||||
|
||||
1222,
|
||||
10101101,
|
||||
1111,
|
||||
10101110, //34
|
||||
|
||||
10222011,
|
||||
0111,
|
||||
344,
|
||||
333,
|
||||
|
||||
10010010,
|
||||
02002020,
|
||||
03003003,
|
||||
0122,
|
||||
500000000000000000000000000008000000000000000000,
|
||||
500000000000000000000000000008000000000000000000, //44
|
||||
|
||||
32,
|
||||
2220,
|
||||
2222,
|
||||
20020000,
|
||||
|
||||
22011020,
|
||||
2220,
|
||||
10002202,
|
||||
2220, //52
|
||||
|
||||
1222,
|
||||
1110,
|
||||
11011020,
|
||||
1220,
|
||||
|
||||
40040040,
|
||||
02002000,
|
||||
40040040,
|
||||
02002000, //60
|
||||
|
||||
40040040,
|
||||
02001010,
|
||||
40040040,
|
||||
500000000000000000000000000008000000000000000000,
|
||||
10020020,
|
||||
01002000, //66
|
||||
|
||||
32,
|
||||
20020000,
|
||||
1,
|
||||
0222,
|
||||
|
||||
1,
|
||||
10020020,
|
||||
1,
|
||||
2, //74
|
||||
|
||||
#MEASURE 3/4
|
||||
1,
|
||||
1,
|
||||
1,
|
||||
#MEASURE 5/4
|
||||
10001,
|
||||
|
||||
#MEASURE 4/4
|
||||
11011011,
|
||||
01101010,
|
||||
5,
|
||||
000000000000000000000000000008000000000000000000,
|
||||
3,
|
||||
#MEASURE 6/4
|
||||
000000000200, //84
|
||||
|
||||
#MEASURE 4/4
|
||||
#GOGOSTART
|
||||
30220220,
|
||||
20101120,
|
||||
10220220,
|
||||
11102220,
|
||||
|
||||
10220220,
|
||||
10102220,
|
||||
10210210,
|
||||
22101010, //92
|
||||
|
||||
30220220,
|
||||
11202020,
|
||||
10220220,
|
||||
11202020,
|
||||
|
||||
10220220,
|
||||
11201120,
|
||||
03003003,
|
||||
00300303, //100
|
||||
#GOGOEND
|
||||
|
||||
00000100,
|
||||
30010100,
|
||||
110220,
|
||||
110111, //104
|
||||
|
||||
#GOGOSTART
|
||||
00300300,
|
||||
30030030,
|
||||
00300300,
|
||||
30030030,
|
||||
|
||||
30110010,
|
||||
0011,
|
||||
110110,
|
||||
111100, //112
|
||||
|
||||
111111,
|
||||
111111,
|
||||
1,
|
||||
#GOGOEND
|
||||
3,
|
||||
0, //117
|
||||
#END
|
||||
|
||||
|
||||
COURSE:Easy
|
||||
LEVEL:5
|
||||
BALLOON:
|
||||
SCOREINIT:450,4600
|
||||
SCOREDIFF:138
|
||||
|
||||
#START
|
||||
#MEASURE 3/4
|
||||
1,
|
||||
#MEASURE 4/4
|
||||
2,
|
||||
#MEASURE 3/4
|
||||
1,
|
||||
#MEASURE 4/4
|
||||
1, //4
|
||||
|
||||
1001,
|
||||
01,
|
||||
11,
|
||||
1110, //8
|
||||
|
||||
#MEASURE 3/4
|
||||
1,
|
||||
#MEASURE 4/4
|
||||
2,
|
||||
#MEASURE 3/4
|
||||
1,
|
||||
#MEASURE 4/4
|
||||
2, //12
|
||||
|
||||
#MEASURE 3/4
|
||||
1,
|
||||
#MEASURE 4/4
|
||||
1,
|
||||
10010010,
|
||||
#MEASURE 3/4
|
||||
1, //16
|
||||
|
||||
1,
|
||||
#MEASURE 4/4
|
||||
2,
|
||||
20020020,
|
||||
#MEASURE 3/4
|
||||
020000, //20
|
||||
|
||||
1,
|
||||
1,
|
||||
1,
|
||||
1, //24
|
||||
|
||||
#MEASURE 4/4
|
||||
11,
|
||||
#MEASURE 6/4
|
||||
500000000000000000000000000000000008000000000000000000000000000000000000, //26
|
||||
|
||||
#MEASURE 4/4
|
||||
3011,
|
||||
1011,
|
||||
500000000000000000000000000008000000000000000000,
|
||||
1110,
|
||||
|
||||
12,
|
||||
1110,
|
||||
1111,
|
||||
11, //34
|
||||
|
||||
10000001,
|
||||
0110,
|
||||
333,
|
||||
333,
|
||||
|
||||
1001,
|
||||
02,
|
||||
03003003,
|
||||
02,
|
||||
500000000000000000000000000008000000000000000000,
|
||||
500000000000000000000000000008000000000000000000, //44
|
||||
|
||||
32,
|
||||
22,
|
||||
22,
|
||||
2,
|
||||
|
||||
21,
|
||||
2220,
|
||||
12,
|
||||
2220, //52
|
||||
|
||||
12,
|
||||
1110,
|
||||
11,
|
||||
12,
|
||||
|
||||
40040040,
|
||||
0,
|
||||
40040040,
|
||||
0, //60
|
||||
|
||||
40040040,
|
||||
01,
|
||||
40040040,
|
||||
500000000000000000000000000008000000000000000000,
|
||||
1002,
|
||||
02, //66
|
||||
|
||||
1,
|
||||
2,
|
||||
1,
|
||||
02,
|
||||
|
||||
1,
|
||||
1,
|
||||
1,
|
||||
2, //74
|
||||
|
||||
#MEASURE 3/4
|
||||
1,
|
||||
1,
|
||||
1,
|
||||
#MEASURE 5/4
|
||||
10001,
|
||||
|
||||
#MEASURE 4/4
|
||||
10010010,
|
||||
01001000,
|
||||
5,
|
||||
000000000000000000000000000008000000000000000000,
|
||||
3,
|
||||
#MEASURE 6/4
|
||||
0, //84
|
||||
|
||||
#MEASURE 4/4
|
||||
#GOGOSTART
|
||||
30020020,
|
||||
1110,
|
||||
10020020,
|
||||
1110,
|
||||
|
||||
10020020,
|
||||
1110,
|
||||
10010010,
|
||||
0111, //92
|
||||
|
||||
30020020,
|
||||
1110,
|
||||
10020020,
|
||||
1110,
|
||||
|
||||
10020020,
|
||||
1111,
|
||||
03003003,
|
||||
00300303, //100
|
||||
#GOGOEND
|
||||
|
||||
00000100,
|
||||
30010000,
|
||||
12,
|
||||
1011, //104
|
||||
|
||||
#GOGOSTART
|
||||
00300300,
|
||||
30030030,
|
||||
00300300,
|
||||
30030030,
|
||||
|
||||
30010010,
|
||||
0011,
|
||||
11,
|
||||
11, //112
|
||||
|
||||
111,
|
||||
101011,
|
||||
1,
|
||||
#GOGOEND
|
||||
3,
|
||||
0, //117
|
||||
#END
|
||||
Reference in New Issue
Block a user