tja
This commit is contained in:
965
tja/1273.tja
Normal file
965
tja/1273.tja
Normal file
@@ -0,0 +1,965 @@
|
||||
//TJADB Project
|
||||
TITLE:Tonde Mite
|
||||
TITLEJA:トンデ・ミテ
|
||||
SUBTITLE:--Tadahiko Yokogawa feat. Yako (Danchinomiya)
|
||||
SUBTITLEJA:横川理彦 feat.団地ノ宮弥子
|
||||
BPM:132
|
||||
WAVE:Tonde Mite.ogg
|
||||
OFFSET:-1.924
|
||||
DEMOSTART:1.021
|
||||
|
||||
COURSE:Oni
|
||||
LEVEL:9
|
||||
BALLOON:18,21
|
||||
SCOREINIT:610
|
||||
SCOREDIFF:153
|
||||
|
||||
|
||||
#START
|
||||
|
||||
|
||||
#MEASURE 2/4
|
||||
#BARLINEOFF
|
||||
00001201,
|
||||
#MEASURE 4/4
|
||||
#BARLINEON
|
||||
21020000,
|
||||
0010002000101201,
|
||||
21000000,
|
||||
0010002000101201,
|
||||
21020000,
|
||||
01020170,
|
||||
00000800,
|
||||
1101100221000202,
|
||||
2102200111000202,
|
||||
1101100221000202,
|
||||
2102200101111220,
|
||||
100000000000000100200000000200000000100000202020,
|
||||
1100011002000000,
|
||||
100100100100000200000000000200000000100000202020,
|
||||
2100020002010000,
|
||||
100000000000000100200000000200000000100000202020,
|
||||
1100011002000000,
|
||||
1111020003001020,
|
||||
0300102004000000,
|
||||
1012011202210121,
|
||||
2021011202210101,
|
||||
1012011202210121,
|
||||
|
||||
#MEASURE 3/4
|
||||
202101120000,
|
||||
#BARLINEOFF
|
||||
#MEASURE 1/32
|
||||
,
|
||||
#BARLINEON
|
||||
#MEASURE 1/16
|
||||
#SCROLL 2.5
|
||||
,
|
||||
#SCROLL 2.37
|
||||
,
|
||||
#SCROLL 2.25
|
||||
,
|
||||
#MEASURE 1/32
|
||||
#SCROLL 2.12
|
||||
,
|
||||
#SCROLL 1
|
||||
1,
|
||||
#MEASURE 1/16
|
||||
#SCROLL 1.99
|
||||
,
|
||||
#SCROLL 1.86
|
||||
0
|
||||
#SCROLL 1
|
||||
1,
|
||||
#SCROLL 1.74
|
||||
0
|
||||
#SCROLL 1
|
||||
2,
|
||||
#SCROLL 1.61
|
||||
,
|
||||
#SCROLL 1.48
|
||||
0
|
||||
#SCROLL 1
|
||||
1,
|
||||
#SCROLL 1.354
|
||||
0
|
||||
#SCROLL 1
|
||||
1,
|
||||
#SCROLL 1.23
|
||||
0
|
||||
#SCROLL 1
|
||||
2,
|
||||
#MEASURE 1/32
|
||||
#BARLINEOFF
|
||||
,
|
||||
#MEASURE 2/4
|
||||
02210121,
|
||||
|
||||
#BARLINEON
|
||||
#MEASURE 4/4
|
||||
2021011202210101,
|
||||
1012011202210121,
|
||||
2021011202210101,
|
||||
1001021101220112,
|
||||
1012012011120200,
|
||||
1001102022110050,
|
||||
000000000000000000000008000000000100000100000000,
|
||||
1001021101220112,
|
||||
1012012011120200,
|
||||
1001102011005000,
|
||||
000000000000000000000000000008000000000000000000,
|
||||
|
||||
#GOGOSTART
|
||||
1102020201020200,
|
||||
0220000001102200,
|
||||
0220110220202001,
|
||||
0110002021020100,
|
||||
1021021021021010,
|
||||
0022022000202112,
|
||||
0210002010000021,
|
||||
0120100001201002,
|
||||
1010102100101010,
|
||||
500000000000000000000008000000000200200000200200,
|
||||
1111222111222112,
|
||||
2112211221112221,
|
||||
1002210022070000,
|
||||
0000000000008000,
|
||||
|
||||
#GOGOEND
|
||||
010020010022,
|
||||
110101120022,
|
||||
110020010022,
|
||||
100010000000100000001000100200200200200200200000,
|
||||
020020020020,
|
||||
220020020011,
|
||||
|
||||
#GOGOSTART
|
||||
1022012201220122,
|
||||
1022122101220221,
|
||||
1022012201220122,
|
||||
1022122101220221,
|
||||
200200200200100000200200200200100000200020002000,
|
||||
2222102222110100,
|
||||
200200200200100000200200200200100000200020002000,
|
||||
2222102222110100,
|
||||
|
||||
#GOGOEND
|
||||
102011210102,
|
||||
212011211202,
|
||||
101211210202,
|
||||
0200,
|
||||
102100200102,
|
||||
202001200202,
|
||||
000000001000200000000000200000000000200000200000,
|
||||
#BARLINEOFF
|
||||
#MEASURE 2/4
|
||||
,
|
||||
#BARLINEON
|
||||
#MEASURE 1/16
|
||||
#SCROLL 1.06
|
||||
5,
|
||||
#SCROLL 1.13
|
||||
,
|
||||
#SCROLL 1.25
|
||||
,
|
||||
#SCROLL 1.38
|
||||
008,
|
||||
#SCROLL 1.5
|
||||
,
|
||||
#SCROLL 1.63
|
||||
,
|
||||
#SCROLL 1.75
|
||||
,
|
||||
#SCROLL 1.88
|
||||
,
|
||||
#SCROLL 2
|
||||
,
|
||||
#SCROLL 1.96
|
||||
,
|
||||
#SCROLL 1.91
|
||||
,
|
||||
#SCROLL 1.87
|
||||
,
|
||||
#SCROLL 1.83
|
||||
,
|
||||
#SCROLL 1.78
|
||||
,
|
||||
#SCROLL 1.74
|
||||
,
|
||||
#SCROLL 1.7
|
||||
,
|
||||
#SCROLL 1.6
|
||||
,
|
||||
#SCROLL 1.5
|
||||
,
|
||||
#SCROLL 1.61
|
||||
,
|
||||
#SCROLL 1.57
|
||||
,
|
||||
#SCROLL 1.52
|
||||
,
|
||||
#SCROLL 1.48
|
||||
,
|
||||
#SCROLL 1.43
|
||||
,
|
||||
#SCROLL 1.39
|
||||
,
|
||||
#SCROLL 1.35
|
||||
,
|
||||
#SCROLL 1.3
|
||||
,
|
||||
#SCROLL 1.26
|
||||
,
|
||||
#SCROLL 1.22
|
||||
,
|
||||
#SCROLL 1.17
|
||||
,
|
||||
#SCROLL 1.13
|
||||
,
|
||||
#SCROLL 1.09
|
||||
,
|
||||
#SCROLL 1.04
|
||||
,
|
||||
|
||||
|
||||
#END
|
||||
|
||||
|
||||
COURSE:Hard
|
||||
LEVEL:8
|
||||
BALLOON:14,10,10,18
|
||||
SCOREINIT:870
|
||||
SCOREDIFF:238
|
||||
|
||||
|
||||
#START
|
||||
|
||||
|
||||
#BARLINEOFF
|
||||
#MEASURE 2/4
|
||||
|
||||
,
|
||||
#BARLINEON
|
||||
#MEASURE 4/4
|
||||
01020000,
|
||||
01020110,
|
||||
01000000,
|
||||
01020110,
|
||||
01020000,
|
||||
01020170,
|
||||
00000800,
|
||||
1101100222000000,
|
||||
0102200111000000,
|
||||
1101100222000000,
|
||||
0102200103000000,
|
||||
1000001002001000,
|
||||
1100011002000000,
|
||||
1111000002001000,
|
||||
1100020002000000,
|
||||
1000001002001000,
|
||||
1100011002000000,
|
||||
1111000003000200,
|
||||
0300020003000000,
|
||||
1002011100010100,
|
||||
1002011100010100,
|
||||
1002011100010100,
|
||||
|
||||
#MEASURE 3/4
|
||||
100201110000, //24
|
||||
#MEASURE 1/32
|
||||
#BARLINEOFF
|
||||
0,
|
||||
#BARLINEON
|
||||
#SCROLL 2.5
|
||||
0,
|
||||
#BARLINEOFF
|
||||
#SCROLL 1
|
||||
0,
|
||||
#BARLINEON
|
||||
#SCROLL 2.372727272727273
|
||||
0,
|
||||
#BARLINEOFF
|
||||
#SCROLL 1
|
||||
0,
|
||||
#BARLINEON
|
||||
#SCROLL 2.245454545454546
|
||||
0,
|
||||
#BARLINEOFF
|
||||
#SCROLL 1
|
||||
0,
|
||||
#BARLINEON
|
||||
#SCROLL 2.118181818181818
|
||||
0,
|
||||
#SCROLL 1
|
||||
1,
|
||||
#SCROLL 1.990909090909091
|
||||
0,
|
||||
#BARLINEOFF
|
||||
#SCROLL 1
|
||||
0,
|
||||
#BARLINEON
|
||||
#SCROLL 1.863636363636364
|
||||
0,
|
||||
#BARLINEOFF
|
||||
#SCROLL 1
|
||||
0,
|
||||
#BARLINEON
|
||||
#SCROLL 1.736363636363637
|
||||
0,
|
||||
#BARLINEOFF
|
||||
#SCROLL 1
|
||||
2,
|
||||
#BARLINEON
|
||||
#SCROLL 1.609090909090909
|
||||
0,
|
||||
#BARLINEOFF
|
||||
#SCROLL 1
|
||||
0,
|
||||
#SCROLL 1.481818181818182
|
||||
#BARLINEON
|
||||
0,
|
||||
#BARLINEOFF
|
||||
#SCROLL 1
|
||||
1,
|
||||
#BARLINEON
|
||||
#SCROLL 1.354545454545455
|
||||
0,
|
||||
#BARLINEOFF
|
||||
#SCROLL 1
|
||||
1,
|
||||
#BARLINEON
|
||||
#SCROLL 1.227272727272727
|
||||
0,
|
||||
#BARLINEOFF
|
||||
#SCROLL 1
|
||||
1,
|
||||
#BARLINEON
|
||||
#SCROLL 1.1
|
||||
0,
|
||||
#BARLINEOFF
|
||||
#MEASURE 2/4
|
||||
#SCROLL 1
|
||||
00010100, //49
|
||||
|
||||
#BARLINEON
|
||||
#MEASURE 4/4
|
||||
1002011100010100,
|
||||
1002011100010100,
|
||||
1002011100000000,
|
||||
1022002200220022,
|
||||
0011011000000000,
|
||||
1001100022000050,
|
||||
00000000000000080000000000000000,
|
||||
1022002200220022,
|
||||
0011011000000000,
|
||||
1001100022005000,
|
||||
00000000000000000008000000000000,
|
||||
#GOGOSTART
|
||||
1102020202020200,
|
||||
0700000000800000,
|
||||
0220110220202002,
|
||||
0700000000800000,
|
||||
1001001001001010,
|
||||
0022022000100011,
|
||||
0110002020000011,
|
||||
0110100001101001,
|
||||
1010101100101010,
|
||||
50000000000000000000080000000000,
|
||||
0100200100200100,
|
||||
2001002001002005,
|
||||
0000000000870000,
|
||||
0008,
|
||||
#GOGOEND
|
||||
010010010020,
|
||||
010020010000,
|
||||
010020010020,
|
||||
000010000000000020000000000300000000000000000000,
|
||||
020020020000,
|
||||
020020020000,
|
||||
#GOGOSTART
|
||||
1022002200220022,
|
||||
0022200100100000,
|
||||
1022002200220022,
|
||||
0022200100100000,
|
||||
1001101001102000,
|
||||
1001101000000000,
|
||||
1001101001102000,
|
||||
1001101000000000,
|
||||
#GOGOEND
|
||||
101000120000,
|
||||
011000120000,
|
||||
100100120000,
|
||||
010000000000,
|
||||
001000120000,
|
||||
001000120000,
|
||||
#MEASURE 6/4
|
||||
011200, //83
|
||||
#BARLINEOFF
|
||||
#MEASURE 1/256
|
||||
#SCROLL 1.0
|
||||
5,
|
||||
#MEASURE 15/256
|
||||
#BARLINEON
|
||||
#SCROLL 1.028125
|
||||
0,
|
||||
#MEASURE 1/16
|
||||
#SCROLL 1.05625
|
||||
00,
|
||||
#SCROLL 1.125
|
||||
00,
|
||||
#MEASURE 1/32
|
||||
#SCROLL 1.25
|
||||
0,
|
||||
#BARLINEOFF
|
||||
#SCROLL 1
|
||||
8,
|
||||
#MEASURE 1/16
|
||||
#BARLINEON
|
||||
#SCROLL 1.375
|
||||
00,
|
||||
#SCROLL 1.5
|
||||
00,
|
||||
#SCROLL 1.625
|
||||
00,
|
||||
#SCROLL 1.75
|
||||
00,
|
||||
#SCROLL 1.875
|
||||
00,
|
||||
#SCROLL 2
|
||||
0,
|
||||
#SCROLL 1.958333333333333
|
||||
0,
|
||||
#SCROLL 1.916666666666667
|
||||
0,
|
||||
#SCROLL 1.875
|
||||
0,
|
||||
#SCROLL 1.833333333333333
|
||||
0,
|
||||
#SCROLL 1.791666666666667
|
||||
0,
|
||||
#SCROLL 1.75
|
||||
0,
|
||||
#SCROLL 1.708333333333333
|
||||
0,
|
||||
#SCROLL 1.666666666666666
|
||||
0,
|
||||
#SCROLL 1.625
|
||||
0,
|
||||
#SCROLL 1.583333333333333
|
||||
0,
|
||||
#SCROLL 1.5
|
||||
0,
|
||||
#SCROLL 1.458333333333333
|
||||
0,
|
||||
#SCROLL 1.416666666666667
|
||||
0,
|
||||
#SCROLL 1.375
|
||||
0,
|
||||
#SCROLL 1.333333333333333
|
||||
0,
|
||||
#SCROLL 1.291666666666667
|
||||
0,
|
||||
#SCROLL 1.25
|
||||
0,
|
||||
#SCROLL 1.208333333333333
|
||||
0,
|
||||
#SCROLL 1.125
|
||||
0,
|
||||
#SCROLL 1.083333333333333
|
||||
0,
|
||||
#SCROLL 1.041666666666666
|
||||
0,
|
||||
#SCROLL 1
|
||||
0,
|
||||
#END
|
||||
|
||||
COURSE:1
|
||||
LEVEL:6
|
||||
SCOREINIT:1130,5390
|
||||
SCOREDIFF:400
|
||||
BALLOON:10,6,6,8
|
||||
|
||||
#START
|
||||
#MEASURE 2/4
|
||||
#BARLINEOFF
|
||||
,
|
||||
#MEASURE 4/4
|
||||
#BARLINEON
|
||||
,
|
||||
01010110,
|
||||
05000800,
|
||||
01010110,
|
||||
01020000,
|
||||
01010170,
|
||||
00000800,
|
||||
1000100001000000,
|
||||
0100010001000000,
|
||||
1000100001000000,
|
||||
0100010001000000,
|
||||
1000010002000000,
|
||||
1000010002000000,
|
||||
1010000002000000,
|
||||
1000010002000000,
|
||||
1000010002000000,
|
||||
1000010002000000,
|
||||
1010000003000000,
|
||||
0300000003000000,
|
||||
1002000200000000,
|
||||
1002000200000000,
|
||||
1002000200000000,
|
||||
|
||||
#MEASURE 3/4
|
||||
100200020000, //24
|
||||
#MEASURE 1/32
|
||||
#BARLINEOFF
|
||||
0,
|
||||
#BARLINEON
|
||||
#SCROLL 2.5
|
||||
0,
|
||||
#BARLINEOFF
|
||||
#SCROLL 1
|
||||
0,
|
||||
#BARLINEON
|
||||
#SCROLL 2.372727272727273
|
||||
0,
|
||||
#BARLINEOFF
|
||||
#SCROLL 1
|
||||
0,
|
||||
#BARLINEON
|
||||
#SCROLL 2.245454545454546
|
||||
0,
|
||||
#BARLINEOFF
|
||||
#SCROLL 1
|
||||
0,
|
||||
#BARLINEON
|
||||
#SCROLL 2.118181818181818
|
||||
0,
|
||||
#BARLINEOFF
|
||||
#SCROLL 1
|
||||
0,
|
||||
#BARLINEON
|
||||
#SCROLL 1.990909090909091
|
||||
0,
|
||||
#BARLINEOFF
|
||||
#SCROLL 1
|
||||
0,
|
||||
#BARLINEON
|
||||
#SCROLL 1.863636363636364
|
||||
0,
|
||||
#BARLINEOFF
|
||||
#SCROLL 1
|
||||
0,
|
||||
#BARLINEON
|
||||
#SCROLL 1.736363636363637
|
||||
0,
|
||||
#BARLINEOFF
|
||||
#SCROLL 1
|
||||
0,
|
||||
#BARLINEON
|
||||
#SCROLL 1.609090909090909
|
||||
0,
|
||||
#BARLINEOFF
|
||||
#SCROLL 1
|
||||
0,
|
||||
#SCROLL 1.481818181818182
|
||||
#BARLINEON
|
||||
0,
|
||||
#BARLINEOFF
|
||||
#SCROLL 1
|
||||
0,
|
||||
#BARLINEON
|
||||
#SCROLL 1.354545454545455
|
||||
0,
|
||||
#BARLINEOFF
|
||||
#SCROLL 1
|
||||
0,
|
||||
#BARLINEON
|
||||
#SCROLL 1.227272727272727
|
||||
0,
|
||||
#BARLINEOFF
|
||||
#SCROLL 1
|
||||
0,
|
||||
#BARLINEON
|
||||
#SCROLL 1.1
|
||||
0,
|
||||
#BARLINEOFF
|
||||
#MEASURE 2/4
|
||||
#SCROLL 1
|
||||
0, //49
|
||||
|
||||
#BARLINEON
|
||||
#MEASURE 4/4
|
||||
20020020,
|
||||
1002000200000000,
|
||||
1002000300000000,
|
||||
12020202,
|
||||
01020000,
|
||||
10101005,
|
||||
00000000000000080000000000000000,
|
||||
12020202,
|
||||
01020000,
|
||||
10101050,
|
||||
00000000000000080000000000000000,
|
||||
#GOGOSTART
|
||||
1000000001000000,
|
||||
0700000000800000,
|
||||
0200010002000100,
|
||||
0700000000800000,
|
||||
1001001000001001,
|
||||
0010000000100010,
|
||||
0010001000000010,
|
||||
0010001000200010,
|
||||
0010001000500000,
|
||||
00000000000000080000000000000000,
|
||||
0100100100000100,
|
||||
1001000001001005,
|
||||
0000000080070000,
|
||||
08,
|
||||
#GOGOEND
|
||||
010000020000,
|
||||
010010010000,
|
||||
010000020000,
|
||||
010010010000,
|
||||
020000020000,
|
||||
020000020000,
|
||||
#GOGOSTART
|
||||
2002002000000000,
|
||||
1001001000000000,
|
||||
2002002000000000,
|
||||
1001001000000000,
|
||||
10110100,
|
||||
10110000,
|
||||
20220200,
|
||||
20220000,
|
||||
#GOGOEND
|
||||
101000100000,
|
||||
001000100000,
|
||||
1110,
|
||||
010000000000,
|
||||
001000100000,
|
||||
001000100000,
|
||||
#MEASURE 6/4
|
||||
011000, //83
|
||||
#BARLINEOFF
|
||||
#MEASURE 1/256
|
||||
#SCROLL 1.0
|
||||
5,
|
||||
#MEASURE 15/256
|
||||
#BARLINEON
|
||||
#SCROLL 1.028125
|
||||
0,
|
||||
#MEASURE 1/16
|
||||
#SCROLL 1.05625
|
||||
00,
|
||||
#SCROLL 1.125
|
||||
00,
|
||||
#MEASURE 1/32
|
||||
#SCROLL 1.25
|
||||
0,
|
||||
#BARLINEOFF
|
||||
#SCROLL 1
|
||||
8,
|
||||
#MEASURE 1/16
|
||||
#BARLINEON
|
||||
#SCROLL 1.375
|
||||
00,
|
||||
#SCROLL 1.5
|
||||
00,
|
||||
#SCROLL 1.625
|
||||
00,
|
||||
#SCROLL 1.75
|
||||
00,
|
||||
#SCROLL 1.875
|
||||
00,
|
||||
#SCROLL 2
|
||||
0,
|
||||
#SCROLL 1.958333333333333
|
||||
0,
|
||||
#SCROLL 1.916666666666667
|
||||
0,
|
||||
#SCROLL 1.875
|
||||
0,
|
||||
#SCROLL 1.833333333333333
|
||||
0,
|
||||
#SCROLL 1.791666666666667
|
||||
0,
|
||||
#SCROLL 1.75
|
||||
0,
|
||||
#SCROLL 1.708333333333333
|
||||
0,
|
||||
#SCROLL 1.666666666666666
|
||||
0,
|
||||
#SCROLL 1.625
|
||||
0,
|
||||
#SCROLL 1.583333333333333
|
||||
0,
|
||||
#SCROLL 1.5
|
||||
0,
|
||||
#SCROLL 1.458333333333333
|
||||
0,
|
||||
#SCROLL 1.416666666666667
|
||||
0,
|
||||
#SCROLL 1.375
|
||||
0,
|
||||
#SCROLL 1.333333333333333
|
||||
0,
|
||||
#SCROLL 1.291666666666667
|
||||
0,
|
||||
#SCROLL 1.25
|
||||
0,
|
||||
#SCROLL 1.208333333333333
|
||||
0,
|
||||
#SCROLL 1.125
|
||||
0,
|
||||
#SCROLL 1.083333333333333
|
||||
0,
|
||||
#SCROLL 1.041666666666666
|
||||
0,
|
||||
#SCROLL 1
|
||||
0,
|
||||
#END
|
||||
|
||||
COURSE:0
|
||||
LEVEL:4
|
||||
SCOREINIT:910,7780
|
||||
SCOREDIFF:413
|
||||
BALLOON:14,14,20
|
||||
|
||||
#START
|
||||
#MEASURE 2/4
|
||||
#BARLINEOFF
|
||||
,
|
||||
#MEASURE 4/4
|
||||
#BARLINEON
|
||||
,
|
||||
,
|
||||
,
|
||||
1000000002000000,
|
||||
01010000,
|
||||
1000000002000300,
|
||||
,
|
||||
1000000002000000,
|
||||
0100000002000000,
|
||||
1000000002000000,
|
||||
0100000002000000,
|
||||
1000000002000000,
|
||||
1000010000000000,
|
||||
1000000002000000,
|
||||
1000010000000000,
|
||||
1000000002000000,
|
||||
1000010000000000,
|
||||
1010000001000000,
|
||||
0300000003000000,
|
||||
,
|
||||
10020020,
|
||||
,
|
||||
#MEASURE 3/4
|
||||
100000020000, //24
|
||||
#MEASURE 1/32
|
||||
#BARLINEOFF
|
||||
0,
|
||||
#BARLINEON
|
||||
#SCROLL 2.5
|
||||
0,
|
||||
#BARLINEOFF
|
||||
#SCROLL 1
|
||||
0,
|
||||
#BARLINEON
|
||||
#SCROLL 2.372727272727273
|
||||
0,
|
||||
#BARLINEOFF
|
||||
#SCROLL 1
|
||||
0,
|
||||
#BARLINEON
|
||||
#SCROLL 2.245454545454546
|
||||
0,
|
||||
#BARLINEOFF
|
||||
#SCROLL 1
|
||||
0,
|
||||
#BARLINEON
|
||||
#SCROLL 2.118181818181818
|
||||
0,
|
||||
#BARLINEOFF
|
||||
#SCROLL 1
|
||||
0,
|
||||
#BARLINEON
|
||||
#SCROLL 1.990909090909091
|
||||
0,
|
||||
#BARLINEOFF
|
||||
#SCROLL 1
|
||||
0,
|
||||
#BARLINEON
|
||||
#SCROLL 1.863636363636364
|
||||
0,
|
||||
#BARLINEOFF
|
||||
#SCROLL 1
|
||||
0,
|
||||
#BARLINEON
|
||||
#SCROLL 1.736363636363637
|
||||
0,
|
||||
#BARLINEOFF
|
||||
#SCROLL 1
|
||||
0,
|
||||
#BARLINEON
|
||||
#SCROLL 1.609090909090909
|
||||
0,
|
||||
#BARLINEOFF
|
||||
#SCROLL 1
|
||||
0,
|
||||
#SCROLL 1.481818181818182
|
||||
#BARLINEON
|
||||
0,
|
||||
#BARLINEOFF
|
||||
#SCROLL 1
|
||||
0,
|
||||
#BARLINEON
|
||||
#SCROLL 1.354545454545455
|
||||
0,
|
||||
#BARLINEOFF
|
||||
#SCROLL 1
|
||||
0,
|
||||
#BARLINEON
|
||||
#SCROLL 1.227272727272727
|
||||
0,
|
||||
#BARLINEOFF
|
||||
#SCROLL 1
|
||||
0,
|
||||
#BARLINEON
|
||||
#SCROLL 1.1
|
||||
0,
|
||||
#BARLINEOFF
|
||||
#MEASURE 2/4
|
||||
#SCROLL 1
|
||||
0, //49
|
||||
|
||||
#MEASURE 4/4
|
||||
20020020,
|
||||
,
|
||||
1000000300000000,
|
||||
02020202,
|
||||
02020000,
|
||||
10101005,
|
||||
00000000000000080000000000000000,
|
||||
02020202,
|
||||
02020000,
|
||||
10101050,
|
||||
00000000000000080000000000000000,
|
||||
#GOGOSTART
|
||||
7,
|
||||
00000800,
|
||||
7,
|
||||
00000800,
|
||||
1001001001001000,
|
||||
0010001000100010,
|
||||
0010001000000010,
|
||||
0010000000000010,
|
||||
0010001000500000,
|
||||
00000000000000080000000000000000,
|
||||
0700000000000000,
|
||||
0008,
|
||||
0000000000050000,
|
||||
0000080000000000,
|
||||
#GOGOEND
|
||||
,
|
||||
010010010000,
|
||||
,
|
||||
020020020000,
|
||||
030000000000,
|
||||
,
|
||||
#GOGOSTART
|
||||
2002002000000000,
|
||||
3,
|
||||
2002002000000000,
|
||||
3,
|
||||
10110000,
|
||||
10110000,
|
||||
10110000,
|
||||
10110000,
|
||||
#GOGOEND
|
||||
100000010000,
|
||||
001000100000,
|
||||
0110,
|
||||
010000000000,
|
||||
001000100000,
|
||||
001000100000,
|
||||
#MEASURE 6/4
|
||||
011100,
|
||||
|
||||
#BARLINEOFF
|
||||
#MEASURE 1/256
|
||||
#SCROLL 1.0
|
||||
5,
|
||||
#MEASURE 15/256
|
||||
#BARLINEON
|
||||
#SCROLL 1.028125
|
||||
0,
|
||||
#MEASURE 1/16
|
||||
#SCROLL 1.05625
|
||||
00,
|
||||
#SCROLL 1.125
|
||||
00,
|
||||
#MEASURE 1/32
|
||||
#SCROLL 1.25
|
||||
0,
|
||||
#BARLINEOFF
|
||||
#SCROLL 1
|
||||
8,
|
||||
#MEASURE 1/16
|
||||
#BARLINEON
|
||||
#SCROLL 1.375
|
||||
00,
|
||||
#SCROLL 1.5
|
||||
00,
|
||||
#SCROLL 1.625
|
||||
00,
|
||||
#SCROLL 1.75
|
||||
00,
|
||||
#SCROLL 1.875
|
||||
00,
|
||||
#SCROLL 2
|
||||
0,
|
||||
#SCROLL 1.958333333333333
|
||||
0,
|
||||
#SCROLL 1.916666666666667
|
||||
0,
|
||||
#SCROLL 1.875
|
||||
0,
|
||||
#SCROLL 1.833333333333333
|
||||
0,
|
||||
#SCROLL 1.791666666666667
|
||||
0,
|
||||
#SCROLL 1.75
|
||||
0,
|
||||
#SCROLL 1.708333333333333
|
||||
0,
|
||||
#SCROLL 1.666666666666666
|
||||
0,
|
||||
#SCROLL 1.625
|
||||
0,
|
||||
#SCROLL 1.583333333333333
|
||||
0,
|
||||
#SCROLL 1.5
|
||||
0,
|
||||
#SCROLL 1.458333333333333
|
||||
0,
|
||||
#SCROLL 1.416666666666667
|
||||
0,
|
||||
#SCROLL 1.375
|
||||
0,
|
||||
#SCROLL 1.333333333333333
|
||||
0,
|
||||
#SCROLL 1.291666666666667
|
||||
0,
|
||||
#SCROLL 1.25
|
||||
0,
|
||||
#SCROLL 1.208333333333333
|
||||
0,
|
||||
#SCROLL 1.125
|
||||
0,
|
||||
#SCROLL 1.083333333333333
|
||||
0,
|
||||
#SCROLL 1.041666666666666
|
||||
0,
|
||||
#SCROLL 1
|
||||
0,
|
||||
#END
|
||||
Reference in New Issue
Block a user