tja
This commit is contained in:
416
tja/1295.tja
Normal file
416
tja/1295.tja
Normal file
@@ -0,0 +1,416 @@
|
||||
//TJADB Project
|
||||
TITLE:Unpi Friends
|
||||
TITLEJA:うんぴフレンズ
|
||||
SUBTITLE:--Takeshita☆Paradise
|
||||
SUBTITLEJA:竹下☆ぱらだいす
|
||||
BPM:170
|
||||
WAVE:Unpi Friends.ogg
|
||||
OFFSET:-0.884
|
||||
DEMOSTART:43.214
|
||||
|
||||
|
||||
COURSE:Edit
|
||||
LEVEL:8
|
||||
BALLOON:5,5,7,5
|
||||
SCOREINIT:2200
|
||||
SCOREDIFF:0
|
||||
|
||||
#START
|
||||
101000100000200200200200
|
||||
#SCROLL 3
|
||||
700000000000000000800000,
|
||||
#SCROLL 1
|
||||
101000100000200200200200
|
||||
#SCROLL 3
|
||||
700000000000000000800000,
|
||||
#SCROLL 1
|
||||
110000100200200200200000,
|
||||
#BARLINEOFF
|
||||
#SCROLL 3
|
||||
700000000800
|
||||
#SCROLL 1
|
||||
000222200000, //4
|
||||
|
||||
#BARLINEON
|
||||
1120102011201020,
|
||||
1120102011202020,
|
||||
110100110100110100110100,
|
||||
110100110100110100110100,
|
||||
|
||||
1120102011202020,
|
||||
1120102011202020,
|
||||
110100110100110100110100,
|
||||
#BARLINEOFF
|
||||
#SCROLL 3
|
||||
00307008, //12
|
||||
|
||||
#BARLINEON
|
||||
#SCROLL 1
|
||||
1020112010201120,
|
||||
1020112010102222,
|
||||
1020112010201120,
|
||||
1110222010102222,
|
||||
|
||||
1020112010201120,
|
||||
1020112010102222,
|
||||
1020112010201120,
|
||||
1110222011112000, //20
|
||||
|
||||
1111001022200000,
|
||||
1110111020220000,
|
||||
1000101022200000,
|
||||
1111101022200000,
|
||||
|
||||
10211020,
|
||||
1111211120102000,
|
||||
1111211111112111,
|
||||
2111211121112111, //28
|
||||
|
||||
#BARLINEOFF
|
||||
#SCROLL 3
|
||||
0360,
|
||||
000000000000000000000008000000000000400000000000, //30
|
||||
|
||||
#BARLINEON
|
||||
#SCROLL 1
|
||||
#GOGOSTART
|
||||
1111201111201122,
|
||||
1000201110201120,
|
||||
1111201111201122,
|
||||
1000201210202222,
|
||||
|
||||
1010201110102010,
|
||||
1110201110201020,
|
||||
1111222211112222,
|
||||
000000101000200000101000200000000000200200200200, //38
|
||||
|
||||
1111201111201122,
|
||||
1000201110201120,
|
||||
1111201111201122,
|
||||
1000201210202222,
|
||||
|
||||
1020112010201120,
|
||||
100000200000100100200000101000100000000000300000,
|
||||
0022102010221020,
|
||||
1122112211112222, //46
|
||||
#GOGOEND
|
||||
|
||||
0,
|
||||
#BARLINEOFF
|
||||
#SCROLL 3
|
||||
06,
|
||||
000000000000000000000000000008000000000000000000,
|
||||
#BARLINEON
|
||||
0,
|
||||
0,
|
||||
0,
|
||||
0, //53
|
||||
#END
|
||||
|
||||
|
||||
COURSE:Oni
|
||||
LEVEL:3
|
||||
BALLOON:30,19,25
|
||||
SCOREINIT:5240
|
||||
SCOREDIFF:0
|
||||
|
||||
#START
|
||||
#SCROLL 0.75
|
||||
1140,
|
||||
1140,
|
||||
10111110,
|
||||
600000000000000000000008000000000000000000000000, //4
|
||||
|
||||
1212,
|
||||
1212,
|
||||
3333,
|
||||
3333,
|
||||
|
||||
1212,
|
||||
1212,
|
||||
3333,
|
||||
0440, //12
|
||||
|
||||
10201120,
|
||||
11211120,
|
||||
10201120,
|
||||
3330,
|
||||
|
||||
10201120,
|
||||
11211120,
|
||||
10201120,
|
||||
3330, //20
|
||||
|
||||
11012100,
|
||||
11112100,
|
||||
10112100,
|
||||
11112100,
|
||||
|
||||
10111020,
|
||||
11111020,
|
||||
7,
|
||||
0,
|
||||
8360,
|
||||
000000000000000000000008000000000000000000000000, //30
|
||||
|
||||
#GOGOSTART
|
||||
10210212,
|
||||
10022220,
|
||||
10210212,
|
||||
10022220,
|
||||
|
||||
10211020,
|
||||
10210220,
|
||||
1111,
|
||||
01212000, //38
|
||||
|
||||
10210212,
|
||||
10022220,
|
||||
10210212,
|
||||
10022220,
|
||||
|
||||
10201120,
|
||||
11221107,
|
||||
0,
|
||||
8, //46
|
||||
#GOGOEND
|
||||
|
||||
0,
|
||||
07,
|
||||
0,
|
||||
8,
|
||||
0,
|
||||
0,
|
||||
0, //53
|
||||
#END
|
||||
|
||||
|
||||
COURSE:Hard
|
||||
LEVEL:3
|
||||
BALLOON:25,14,18
|
||||
SCOREINIT:7580
|
||||
SCOREDIFF:0
|
||||
|
||||
#START
|
||||
#SCROLL 0.75
|
||||
1130,
|
||||
1130,
|
||||
1111,
|
||||
600000000000000000000008000000000000000000000000, //4
|
||||
|
||||
11,
|
||||
11,
|
||||
3333,
|
||||
3333,
|
||||
|
||||
11,
|
||||
11,
|
||||
3333,
|
||||
0440, //12
|
||||
|
||||
1212,
|
||||
11101000,
|
||||
1212,
|
||||
3330,
|
||||
|
||||
1212,
|
||||
11101000,
|
||||
1212,
|
||||
3330, //20
|
||||
|
||||
12,
|
||||
11102000,
|
||||
12,
|
||||
11102000,
|
||||
|
||||
1112,
|
||||
1112,
|
||||
7,
|
||||
0,
|
||||
8360,
|
||||
000000000000000000000008000000000000000000000000, //30
|
||||
|
||||
#GOGOSTART
|
||||
10110110,
|
||||
3,
|
||||
10110110,
|
||||
3,
|
||||
|
||||
10011010,
|
||||
10110000,
|
||||
1111,
|
||||
01212000, //38
|
||||
|
||||
10110110,
|
||||
3,
|
||||
10110110,
|
||||
3,
|
||||
|
||||
1212,
|
||||
11101107,
|
||||
0,
|
||||
8, //46
|
||||
#GOGOEND
|
||||
|
||||
0,
|
||||
09,
|
||||
00000900,
|
||||
8,
|
||||
0,
|
||||
0,
|
||||
0, //53
|
||||
#END
|
||||
|
||||
|
||||
COURSE:Normal
|
||||
LEVEL:1
|
||||
BALLOON:11,8,8,10
|
||||
SCOREINIT:16570
|
||||
SCOREDIFF:0
|
||||
|
||||
#START
|
||||
#SCROLL 0.75
|
||||
03,
|
||||
03,
|
||||
0,
|
||||
3, //4
|
||||
|
||||
11,
|
||||
11,
|
||||
7,
|
||||
0008,
|
||||
|
||||
11,
|
||||
11,
|
||||
500000000000000000000000000000000000000000000008,
|
||||
0, //12
|
||||
|
||||
1,
|
||||
1,
|
||||
1110,
|
||||
1,
|
||||
|
||||
1,
|
||||
1,
|
||||
1110,
|
||||
1, //20
|
||||
|
||||
11,
|
||||
2,
|
||||
11,
|
||||
2,
|
||||
|
||||
11,
|
||||
2,
|
||||
11,
|
||||
1110,
|
||||
0700,
|
||||
08, //30
|
||||
|
||||
#GOGOSTART
|
||||
1110,
|
||||
1,
|
||||
1110,
|
||||
1,
|
||||
|
||||
00070000,
|
||||
0008,
|
||||
1110,
|
||||
0, //38
|
||||
|
||||
1110,
|
||||
1,
|
||||
1110,
|
||||
1,
|
||||
|
||||
11,
|
||||
20002006,
|
||||
000000000000000000000000000000000000000000000008,
|
||||
0, //46
|
||||
#GOGOEND
|
||||
|
||||
0,
|
||||
09,
|
||||
00000900,
|
||||
8,
|
||||
0,
|
||||
0,
|
||||
0, //53
|
||||
#END
|
||||
|
||||
|
||||
COURSE:Easy
|
||||
LEVEL:1
|
||||
BALLOON:8,6,6,7
|
||||
SCOREINIT:24890
|
||||
SCOREDIFF:0
|
||||
|
||||
#START
|
||||
#SCROLL 0.75
|
||||
03,
|
||||
03,
|
||||
0,
|
||||
3, //4
|
||||
|
||||
1,
|
||||
1,
|
||||
7,
|
||||
0008,
|
||||
|
||||
1,
|
||||
1,
|
||||
500000000000000000000000000000000000000000000008,
|
||||
0, //12
|
||||
|
||||
1,
|
||||
0,
|
||||
11,
|
||||
1,
|
||||
|
||||
1,
|
||||
0,
|
||||
11,
|
||||
1, //20
|
||||
|
||||
11,
|
||||
0,
|
||||
11,
|
||||
0,
|
||||
|
||||
11,
|
||||
0,
|
||||
11,
|
||||
1,
|
||||
0700,
|
||||
08, //30
|
||||
|
||||
#GOGOSTART
|
||||
11,
|
||||
1,
|
||||
11,
|
||||
1,
|
||||
|
||||
00070000,
|
||||
0008,
|
||||
11,
|
||||
0, //38
|
||||
|
||||
11,
|
||||
1,
|
||||
11,
|
||||
1,
|
||||
|
||||
2,
|
||||
20000006,
|
||||
000000000000000000000000000000000000000000000008,
|
||||
0, //46
|
||||
#GOGOEND
|
||||
|
||||
0,
|
||||
09,
|
||||
00000900,
|
||||
8,
|
||||
0,
|
||||
0,
|
||||
0, //53
|
||||
#END
|
||||
Reference in New Issue
Block a user