This commit is contained in:
2026-03-04 23:59:27 +09:00
parent 6e0312f5b4
commit 4b4e2b8c98
1128 changed files with 668765 additions and 0 deletions

265
tja/1300.tja Normal file
View File

@@ -0,0 +1,265 @@
//TJADB Project
TITLE:Show Time
TITLEJA:Show Time
SUBTITLE:--Knight A
SUBTITLEJA:Knight A 騎士A
BPM:115
WAVE:Show Time.ogg
OFFSET:-1.551
DEMOSTART:51.106
COURSE:Oni
LEVEL:6
BALLOON:14,14
SCOREINIT:3600
SCOREDIFF:0
#START
1000102020021000,
1002100010021000,
1000102020021000,
1002100020101101,
2000200020101101,
2010200020002201,
1020110220201101,
1000200020101101, //8
2000200020101101,
2010200020002201,
1020110220201101,
21200021,
1000200010002011,
1010200010002011,
11221120,
2202210110202000, //16
2000002020012010,
7008,
2000000020012010,
7008,
1000220100101000,
1000201100101000,
11202111,
22200021, //24
#GOGOSTART
1011200020011201,
11202121,
12211230,
1000200020112011,
1010200020112011,
11202121,
1020201010002011,
1020201110202010, //32
1011200020011201,
11202121,
12211230,
1000200020112011,
1010200020112011,
11202121,
1020201010002011,
1020201110203000,
#GOGOEND
0,
0, //42
#END
COURSE:Hard
LEVEL:3
BALLOON:10,10
SCOREINIT:6090
SCOREDIFF:0
#START
11,
1,
11,
10000110,
10200110,
1201,
11102020,
10200110, //8
10200110,
1201,
11102220,
10200021,
1212,
11200020,
11201110,
20201110, //16
2022,
7008,
2022,
7008,
10200110,
10200110,
11201110,
22200011, //24
#GOGOSTART
1221,
11200121,
10211030,
00000121,
10200121,
10200121,
10211020,
12201221, //32
1221,
11200121,
10211030,
00000121,
10200121,
10200121,
10211020,
12201230,
#GOGOEND
0,
0, //42
#END
COURSE:Normal
LEVEL:3
BALLOON:8,8
SCOREINIT:9340
SCOREDIFF:0
#START
1,
1,
1,
10000110,
10000110,
1001,
11102020,
10000110, //8
10000110,
1001,
11102020,
1,
1110,
2,
1110,
2, //16
22,
7008,
22,
7008,
1001,
1001,
1011,
2001, //24
#GOGOSTART
1201,
1101,
10111030,
00000110,
10200110,
1201,
10111000,
2221, //32
1201,
1101,
10111030,
00000110,
10200110,
1201,
10111000,
2223,
#GOGOEND
0,
0, //42
#END
COURSE:Easy
LEVEL:3
BALLOON:6,6
SCOREINIT:15140
SCOREDIFF:0
#START
1,
0,
1,
0001,
1001,
1001,
12,
1001, //8
1001,
1001,
12,
1,
11,
2,
11,
2, //16
2,
7008,
2,
7008,
1,
1,
11,
2001, //24
#GOGOSTART
1001,
1001,
1013,
0001,
1001,
1001,
11,
2201, //32
1001,
1001,
1013,
0001,
1001,
1001,
11,
2203,
#GOGOEND
0,
0, //42
#END