tja
This commit is contained in:
341
tja/1302.tja
Normal file
341
tja/1302.tja
Normal file
@@ -0,0 +1,341 @@
|
||||
//TJADB Project
|
||||
TITLE:Bakuage Sentai Boomboomger
|
||||
TITLEJA:爆上戦隊ブンブンジャー
|
||||
SUBTITLE:--
|
||||
SUBTITLEJA:
|
||||
BPM:174
|
||||
WAVE:Bakuage Sentai Boomboomger.ogg
|
||||
OFFSET:-0.668
|
||||
DEMOSTART:37.373
|
||||
|
||||
|
||||
COURSE:Oni
|
||||
LEVEL:4
|
||||
BALLOON:8,33
|
||||
SCOREINIT:4420
|
||||
SCOREDIFF:0
|
||||
|
||||
#START
|
||||
#SCROLL 0.75
|
||||
3000000000001110,
|
||||
02020222,
|
||||
|
||||
10102201,
|
||||
01012220,
|
||||
10102201,
|
||||
02012020,
|
||||
|
||||
10102221,
|
||||
01012020,
|
||||
10102203,
|
||||
01101015,
|
||||
000000000000000000000000000008000000000000000000, //11
|
||||
|
||||
10102012,
|
||||
11020001,
|
||||
11020112,
|
||||
0122,
|
||||
|
||||
10102012,
|
||||
11020001,
|
||||
11020111,
|
||||
02022010, //19
|
||||
|
||||
40040101,
|
||||
02112010,
|
||||
40040112,
|
||||
02211010,
|
||||
|
||||
40040101,
|
||||
02112010,
|
||||
3000300011100070,
|
||||
08, //27
|
||||
|
||||
#GOGOSTART
|
||||
3000111020001010,
|
||||
02011202,
|
||||
1000111020001010,
|
||||
02211020,
|
||||
|
||||
12121212,
|
||||
11110200,
|
||||
3000300020111010,
|
||||
02000220, //35
|
||||
|
||||
3000111020001010,
|
||||
02011200,
|
||||
1000111020001010,
|
||||
02220001,
|
||||
|
||||
1010201
|
||||
#GOGOEND
|
||||
1,
|
||||
0006,
|
||||
0,
|
||||
000000000000000000000008000000000000000000000000,
|
||||
10102205,
|
||||
000000000000000000000000000000000008000000000000, //45
|
||||
|
||||
10102221,
|
||||
01012020,
|
||||
10102203,
|
||||
0011100030004000,
|
||||
|
||||
7,
|
||||
0,
|
||||
0000000080111010,
|
||||
0010100030030030, //53
|
||||
|
||||
0,
|
||||
0,
|
||||
0, //56
|
||||
#END
|
||||
|
||||
|
||||
COURSE:Hard
|
||||
LEVEL:3
|
||||
BALLOON:17,6,6,41
|
||||
SCOREINIT:7230
|
||||
SCOREDIFF:0
|
||||
|
||||
#START
|
||||
#SCROLL 0.75
|
||||
0,
|
||||
0,
|
||||
|
||||
10001101,
|
||||
01022000,
|
||||
10001102,
|
||||
02022000,
|
||||
|
||||
10001101,
|
||||
01022000,
|
||||
10001107,
|
||||
0,
|
||||
00000800, //11
|
||||
|
||||
1110,
|
||||
11010000,
|
||||
11010000,
|
||||
2220,
|
||||
|
||||
1110,
|
||||
11010000,
|
||||
11010002,
|
||||
02022000, //19
|
||||
|
||||
40040001,
|
||||
01101000,
|
||||
40040001,
|
||||
01011000,
|
||||
|
||||
40040001,
|
||||
01011000,
|
||||
30303007,
|
||||
0008, //27
|
||||
|
||||
#GOGOSTART
|
||||
10102011,
|
||||
02010200,
|
||||
10102011,
|
||||
02202000,
|
||||
|
||||
1111,
|
||||
10110100,
|
||||
30301011,
|
||||
02000000, //35
|
||||
|
||||
10102011,
|
||||
02010200,
|
||||
10102011,
|
||||
02220000,
|
||||
|
||||
1010101
|
||||
#GOGOEND
|
||||
1,
|
||||
00000006,
|
||||
0,
|
||||
000000000000000000000008000000000000000000000000,
|
||||
00000007,
|
||||
0008, //45
|
||||
|
||||
10101101,
|
||||
01022000,
|
||||
10101103,
|
||||
0334,
|
||||
|
||||
9,
|
||||
0,
|
||||
0,
|
||||
9, //53
|
||||
|
||||
8,
|
||||
0,
|
||||
0, //56
|
||||
#END
|
||||
|
||||
|
||||
COURSE:Normal
|
||||
LEVEL:1
|
||||
BALLOON:13,5,9,13,13,28
|
||||
SCOREINIT:24110
|
||||
SCOREDIFF:0
|
||||
|
||||
#START
|
||||
#SCROLL 0.75
|
||||
0,
|
||||
0,
|
||||
|
||||
11,
|
||||
0,
|
||||
11,
|
||||
0,
|
||||
|
||||
11,
|
||||
0,
|
||||
10001007,
|
||||
0,
|
||||
00000800, //11
|
||||
|
||||
11,
|
||||
2,
|
||||
1,
|
||||
1,
|
||||
|
||||
11,
|
||||
2,
|
||||
1,
|
||||
2, //19
|
||||
|
||||
500000000000000000000000000000000008000000000000,
|
||||
0,
|
||||
7008,
|
||||
0,
|
||||
|
||||
500000000000000000000000000000000008000000000000,
|
||||
0,
|
||||
7,
|
||||
0008, //27
|
||||
|
||||
#GOGOSTART
|
||||
1110,
|
||||
1,
|
||||
1110,
|
||||
1,
|
||||
|
||||
7,
|
||||
0008,
|
||||
3330,
|
||||
0, //35
|
||||
|
||||
1110,
|
||||
1,
|
||||
1110,
|
||||
1,
|
||||
|
||||
1000100
|
||||
#GOGOEND
|
||||
0,
|
||||
00000006,
|
||||
0,
|
||||
000000000000000000000008000000000000000000000000,
|
||||
00000007,
|
||||
0, //45
|
||||
|
||||
0,
|
||||
8,
|
||||
22,
|
||||
0,
|
||||
|
||||
9,
|
||||
0,
|
||||
0,
|
||||
9, //53
|
||||
|
||||
8,
|
||||
0,
|
||||
0, //56
|
||||
#END
|
||||
|
||||
|
||||
COURSE:Easy
|
||||
LEVEL:1
|
||||
BALLOON:10,3,7,7,10,23
|
||||
SCOREINIT:34180
|
||||
SCOREDIFF:0
|
||||
|
||||
#START
|
||||
#SCROLL 0.75
|
||||
0,
|
||||
0,
|
||||
|
||||
1,
|
||||
0,
|
||||
1,
|
||||
0,
|
||||
|
||||
1,
|
||||
0,
|
||||
10000007,
|
||||
0,
|
||||
00000800, //11
|
||||
|
||||
11,
|
||||
0,
|
||||
1,
|
||||
1,
|
||||
|
||||
11,
|
||||
0,
|
||||
1,
|
||||
0, //19
|
||||
|
||||
500000000000000000000000000000000008000000000000,
|
||||
0,
|
||||
7008,
|
||||
0,
|
||||
|
||||
500000000000000000000000000000000008000000000000,
|
||||
0,
|
||||
7,
|
||||
0008, //27
|
||||
|
||||
#GOGOSTART
|
||||
11,
|
||||
1,
|
||||
11,
|
||||
1,
|
||||
|
||||
7,
|
||||
0008,
|
||||
33,
|
||||
0, //35
|
||||
|
||||
11,
|
||||
1,
|
||||
11,
|
||||
1,
|
||||
|
||||
1000100
|
||||
#GOGOEND
|
||||
0,
|
||||
00000006,
|
||||
0,
|
||||
000000000000000000000008000000000000000000000000,
|
||||
00000007,
|
||||
0, //45
|
||||
|
||||
0,
|
||||
8,
|
||||
22,
|
||||
0,
|
||||
|
||||
9,
|
||||
0,
|
||||
0,
|
||||
9, //53
|
||||
|
||||
8,
|
||||
0,
|
||||
0, //56
|
||||
#END
|
||||
Reference in New Issue
Block a user