This commit is contained in:
2026-03-04 23:59:27 +09:00
parent 6e0312f5b4
commit 4b4e2b8c98
1128 changed files with 668765 additions and 0 deletions

407
tja/1303.tja Normal file
View File

@@ -0,0 +1,407 @@
//TJADB Project
TITLE:Happy Synthesizer
TITLEJA:ハッピーシンセサイザ
SUBTITLE:--EasyPop feat. Megurine Luka & GUMI
SUBTITLEJA:EasyPop feat. 巡音ルカ・GUMI
BPM:127
WAVE:Happy Synthesizer.ogg
OFFSET:-2.121
DEMOSTART:55.495
//Shinuchi: 9910/5720/3570/2780/1800
//Before 27 March 2025 there was a 2P chart with a different Stanza #29 in Ura: 1221011700008000,
COURSE:Edit
LEVEL:8
BALLOON:6
SCOREINIT:580,1830
SCOREDIFF:155
#START
#BARLINEOFF
#MEASURE 1/4
2222,
#BARLINEON
#MEASURE 4/4
1020102011210120,
1020102210120020,
1012020101010012,
1111101111101110, //5
1120212010210120,
1120212011221210,
1120212010210120,
1120212022121221,
1120212010210120,
1120212011221210,
1120212010210120,
1120212010211210, //13
3000100011112122,
1122121121212212,
1000100012212211,
2212012221212121,
1000100011112122,
1122121121212212,
1000100012212211,
2212012221212120, //21
1121201201120122,
1021021102120220,
1121201201120122,
1021020121212120,
1121201201120122,
1021021102120220,
1121201201120122,
1121021700008000, //29
#GOGOSTART
3022102211210122,
1022102211210122,
1022120212021122,
1010103021212122,
1022102211210122,
1022102211210122,
1022120212021122,
1010103021211222, //37
1011202110120210,
1022101220210120,
1011202110120210,
1010103021211222,
1011202110120210,
1022101220210120,
1011202110120210,
100000100000100000500000000000000008000000000000, //45
#GOGOEND
100200100100200200100100200100200100200000101010,
200100200100200200100100200010001000200010002000,
3,
0,
0,
0, //51
#END
COURSE:Oni
LEVEL:7
BALLOON:5,5,5,4,5,5,5
SCOREINIT:900,3020
SCOREDIFF:250
#START
#BARLINEOFF
#MEASURE 1/4
2222,
#BARLINEON
#MEASURE 4/4
2020202020220220,
2020202020220020,
2022020202020020,
22270080, //5
3000200011220020,
1000200022110010,
1000200011220020,
1000200022110010,
1000100010120210,
4000200020210120,
3000100010110110,
4000400020220220, //13
3000100011010020,
1000100010110020,
1000101111010010,
2022070000008000,
3000100011010020,
1000100011010020,
1000101111010010,
2022070000008000, //21
1101201101020011,
1011010101020000,
1111201101020011,
1021020700008000,
1110201101020011,
1011010101020000,
3010201101010010,
4022120102020220, //29
#GOGOSTART
3020102010210120,
1020102010110020,
2022010101010020,
22270080,
3020102212020020,
1020102010110020,
2022010101010020,
2020202011210210, //37
3000200010110110,
1000200020220220,
1000200010110010,
11270080,
3000200010110110,
1000200020020220,
1000200010110010,
11270080, //45
#GOGOEND
2010201210212010,
200000100000200100000200100020002000200020002000,
3,
0,
0,
0, //51
#END
COURSE:Hard
LEVEL:5
BALLOON:
SCOREINIT:840,3630
SCOREDIFF:258
#START
#BARLINEOFF
#MEASURE 1/4
0,
#BARLINEON
#MEASURE 4/4
2000200020020020,
2000200020020000,
2002020202020000,
100000000000100000500000000000000008000000000000, //5
1000200010110010,
1000200010110000,
1000200010110010,
1000200010110000,
1000100020220020,
1000100020220020,
1000100010110010,
400000000000400000000000600000000000000008000000, //13
3000100011010000,
2000200020220000,
1000100011010000,
200000000200000000500000000008000000000000000000,
1000100011010000,
2000200022020000,
1000101011010000,
200000000200000000500000000008000000000000000000, //21
1101101101010011,
1011010101010000,
1110101101010011,
100000100100000100000500000000000008000000000000,
1110101101010011,
1011010101010000,
1110101101010022,
200000200200000200000500000000000008000000000000, //29
#GOGOSTART
1020102010110020,
1020102010110020,
2022020202020020,
100000100000100000500000000008000000000000000000,
1020102011010020,
1020102010110020,
2022020202020020,
100000100000100000500000000008000000000000000000, //37
0010100020220220,
0010100020220220,
0010100020220020,
100000100000100000500000000008000000000000000000,
0010100020220220,
0010100020020220,
0010100020220020,
100000100000100000500000000008000000000000000000, //45
#GOGOEND
2010201110201000,
200000200000200200000000200020002000200020002000,
3,
0,
0,
0, //51
#END
COURSE:Normal
LEVEL:3
BALLOON:10,7
SCOREINIT:900,5920
SCOREDIFF:323
#START
#BARLINEOFF
#MEASURE 1/4
0,
#BARLINEON
#MEASURE 4/4
0202,
0202,
700000000000000000000000000000000000000000000008,
00002220, //5
10201110,
1211,
10201110,
1120,
10102220,
1122,
10102220,
7008, //13
11101020,
11102020,
11101020,
500000000000000000000000000008000000000000000000,
11101020,
11102020,
11101020,
500000000000000000000000000008000000000000000000, //21
10111010,
1012,
10111010,
200000000000200000000500000000000008000000000000,
10111010,
1012,
10111010,
200000000000200000000500000000000008000000000000, //29
#GOGOSTART
11101110,
10102220,
10111010,
200000000000200000500000000008000000000000000000,
11101110,
10102220,
10111010,
100000000000100000500000000008000000000000000000, //37
01102020,
01102020,
01102020,
100000000000100000500000000008000000000000000000,
01102020,
01102020,
01102020,
100000000000100000500000000008000000000000000000, //45
#GOGOEND
1110,
3300,
3,
0,
0,
0, //51
#END
COURSE:Easy
LEVEL:2
BALLOON:5,5,5
SCOREINIT:1020,10460
SCOREDIFF:643
#START
#BARLINEOFF
#MEASURE 1/4
0,
#BARLINEON
#MEASURE 4/4
1,
1,
5,
000000000000000000000008000000000000000000000000, //5
1011,
11,
1011,
12,
1011,
11,
1011,
500000000000000000000000000008000000000000000000, //13
1110,
12,
1110,
500000000000000000000000000008000000000000000000,
1110,
12,
1110,
500000000000000000000000000008000000000000000000, //21
1111,
12,
1111,
70000800,
1111,
12,
1111,
500000000000000000000000000008000000000000000000, //29
#GOGOSTART
1110,
1110,
11,
1100,
1110,
1110,
11,
1100, //37
0202,
0202,
0202,
70000800,
0202,
0222,
0202,
70000800, //45
#GOGOEND
1110,
3300,
3,
0,
0,
0, //51
#END