This commit is contained in:
2026-03-04 23:59:27 +09:00
parent 6e0312f5b4
commit 4b4e2b8c98
1128 changed files with 668765 additions and 0 deletions

725
tja/1304.tja Normal file
View File

@@ -0,0 +1,725 @@
//TJADB Project
TITLE:who are you? who are you?
TITLEJA:who are you? who are you?
SUBTITLE:--Shota Horie feat. Yoji Ikuta/WADIVE RECORD
SUBTITLEJA:堀江晶太 feat.生田鷹司WADIVE RECORD
BPM:194
WAVE:who are you who are you.ogg
OFFSET:-1.153
DEMOSTART:53.106
//Shinuchi: 7340/3570/2000/1570/1000
COURSE:Edit
LEVEL:9
BALLOON:8,8,13,55
SCOREINIT:360,1050
SCOREDIFF:78
#START
111100111100200000200000,
111100111100200000200000,
111100111100200000200000,
78,
111100111100200000200000,
111100111100200000200000,
101010100000101010100000200000000000000000200200,
20022000,
1111101111102000, //9
1110200210102022,
1110200210102210,
1110200210102210,
1111102211111000,
1110200210102022,
1110200210102210,
1110200210102210,
500000000000000000000000000000000008000000000000, //17
1020201220202022,
2000202210202020,
1020201220201020,
10012212,
100000200000200000100200200000200000200000101010,
1010222010202020,
1020201220201222,
200000111100100100200200, //25
31221122,
1010202011102020,
1010201120102022,
1020101110102020,
1010202010102222,
1122112210102020,
1010201120102011,
1000221020102000, //33
111100111100200000200000,
111100111100200000200000,
111100111100200000200000,
78,
111100111100200000200000,
111100111100200000200000,
101010100000101010100000200000000000000000200200,
20022000,
7008, //42
#GOGOSTART
1110221022101110,
2210221011201110,
1111201011112011,
1111101022112210,
1110221022101110,
2210221011201110,
1111104011104000,
100100100100100000100000202020200000101010100000, //46
1110221022101110,
2210221011201110,
1111201011112011,
1111101022112222,
1120112022101120,
1120221011221122,
1111104011104000,
1111101022222020,
#GOGOEND
111100111100200000200000,
111100111100200000200000, //60
1110200210102022,
1110200210102210,
1110200210102210,
1111102211111000,
1110200210102022,
1110200210102210,
1110200210102210,
500000000000000000000000000000000008000000000000, //68
1120,
22100022,
10120022,
10102211,
40202022,
21, //74
1010221010221010,
1010221010221010,
1010221010221010,
33330000,
7,
0,
0,
08, //82
#GOGOSTART
1110221022101110,
2210221011201110,
1111104011104000,
1111222011111111,
2000222011111111,
2000222011102210,
1122102222102020,
1111101022102222, //90
1120112022101120,
1120221011221122,
1111104011104000,
1111101022222020,
#GOGOEND
111100111100200000200000,
111100111100200000200000, //96
100000200200200200200222,
200200200222200200200200,
22222222,
200000202020200000200000200000200200200000200000,
200000200200200200200222,
200200200222200200200200,
20222222,
200000202020200000200200200000200000200200200200,
0,
0, //106
#END
COURSE:Oni
LEVEL:7
BALLOON:7,7,10
SCOREINIT:490,1730
SCOREDIFF:128
#START
3322,
3322,
30302011,
78,
3322,
3322,
30302011,
20022000,
500000000000000000000000000000000008000000000000, //9
1010201020111000,
20112212,
11212120,
1000001110000000,
1010201020111000,
20112212,
11212120,
500000000000000000000000000000000008000000000000, //17
10210202,
20211222,
10210220,
20012202,
10210220,
20211222,
10012022,
20012212, //25
10210121,
11211120,
1000201000102011,
12102212,
10210121,
11211122,
10211122,
10112120, //33
3322,
3322,
30302011,
78,
3322,
3322,
30302011,
20022000,
7008, //42
#GOGOSTART
1020111020001020,
1110200010202010,
1000202011102020,
0011101020102000,
1020111020001020,
1110200010202010,
10140140,
1110101020002000, //50
1020111020001020,
1110200010202010,
1000202011102020,
0011101020102000,
1010221020001010,
2210200010102020,
10140140,
1110101022202020,
#GOGOEND
3322,
3322,
1010201020111000,
20112212,
11212120,
1000001110000000,
1010201020111000,
20112212,
11212120,
500000000000000000000000000000000008000000000000, //68
1120,
12100022,
10120022,
10102211,
4222,
21, //74
10210211,
10210211,
10210211,
33330000,
1221,
2212,
10120015,
000000000000000000000008000000000000000000000000, //82
#GOGOSTART
1020111020001020,
1110200010202010,
10140140,
1010101011101110,
2000101011101110,
2000100011102020,
10120122,
01221210, //90
1010221020001010,
2210200010102020,
10140140,
1110101022202020,
#GOGOEND
3322,
3322, //96
22202020,
20222220,
22202020,
2000002220000000,
22202020,
20222220,
22202020,
500000000000000000000000000000000000000000000008,
0,
0, //106
#END
COURSE:Hard
LEVEL:5
BALLOON:6,6,8
SCOREINIT:470,2240
SCOREDIFF:123
#START
3320,
3320,
3320,
78,
3320,
3320,
3320,
20022000,
500000000000000000000008000000000000200000000000, //9
11202010,
20112210,
11202020,
10011000,
11202010,
20112210,
11202020,
500000000000000000000000000000000008000000000000, //17
10210000,
20011000,
10210000,
20012000,
10210000,
20011000,
10210000,
2, //25
10210120,
10211120,
10210120,
11102010,
10210120,
10211120,
10210120,
10112020, //33
3320,
3320,
3320,
78,
3320,
3320,
3320,
20022000,
7008, //42
#GOGOSTART
11112011,
11201120,
10220122,
01102120,
11112011,
11201120,
10140140,
22112020, //50
11112011,
11201120,
10220122,
01102120,
11212011,
21202210,
10140140,
11102220,
#GOGOEND
3322,
3322, //60
11202010,
20112210,
11202020,
10011000,
11202010,
20112210,
11202020,
500000000000000000000000000000000008000000000000, //68
1120,
11100022,
10120022,
10102210,
42,
21, //74
10210210,
10210210,
10210210,
33330000,
22,
22,
20220025,
000000000000000000000008000000000000000000000000, //82
#GOGOSTART
11112011,
11201120,
10140140,
1010101010001110,
2000101010001110,
20101122,
10120122,
01201010, //90
11212011,
21202210,
10140140,
11102220,
#GOGOEND
3322,
3322, //96
22202020,
20222020,
22202020,
20022000,
22202020,
20222020,
22202020,
500000000000000000000000000000000000000000000008,
0,
0, //106
#END
COURSE:Normal
LEVEL:4
BALLOON:5,5,7
SCOREINIT:630,4170
SCOREDIFF:193
#START
3300,
3300,
3300,
78,
3300,
3300,
3300,
22,
500000000000000000000008000000000000000000000000, //9
11,
1110,
11,
22,
11,
1110,
11,
500000000000000000000000000000000008000000000000, //17
10010000,
2,
10010000,
22,
10010000,
2,
10010000,
2, //25
11,
1110,
11,
2220,
11,
1110,
11,
500000000000000000000008000000000000000000000000, //33
3300,
3300,
3300,
78,
3300,
3300,
3310,
22,
7008, //42
#GOGOSTART
10111010,
11102000,
10110022,
0122,
10111010,
11102000,
500000000000000000000000000000000008000000000000,
0122, //50
10111010,
11102000,
10110022,
0122,
10111010,
11102000,
500000000000000000000000000000000008000000000000,
1122,
#GOGOEND
3300,
3300, //60
11,
1110,
11,
22,
11,
1110,
11,
500000000000000000000000000000000008000000000000, //68
1100,
1100,
1100,
1101,
4,
21, //74
10100100,
10100100,
10100100,
11130000,
0,
0,
0,
0, //82
#GOGOSTART
10111010,
11102000,
500000000000000000000000000000000000000000000008,
00002011,
10002011,
1022,
10110011,
0011, //90
1122,
10101110,
500000000000000000000000000000000008000000000000,
1122,
#GOGOEND
3300,
3300, //96
22,
2220,
22,
22,
22,
2220,
22,
500000000000000000000000000000000000000000000008,
0,
0, //106
#END
COURSE:Easy
LEVEL:2
BALLOON:4,4,6,14,7
SCOREINIT:770,8770
SCOREDIFF:348
#START
3,
3,
3,
78,
3,
3,
3,
2,
500000000000000000000008000000000000000000000000, //9
1,
11,
1,
11,
1,
11,
1,
500000000000000000000000000008000000000000000000, //17
1,
1,
1,
2,
1,
1,
1,
2, //25
11,
1,
1,
1,
11,
1,
1,
2, //33
3,
3,
3,
78,
3,
3,
3,
22,
7008, //42
#GOGOSTART
11,
11,
1,
2,
11,
11,
500000000000000000000000000000000000000000000008,
02, //50
11,
11,
1,
2,
11,
11,
500000000000000000000000000000000000000000000008,
0,
#GOGOEND
1,
1, //60
1,
11,
1,
11,
1,
11,
1,
500000000000000000000000000008000000000000000000, //68
1,
1,
1,
1,
4,
2, //74
7,
0,
8,
30030000,
0,
0,
0,
0, //82
#GOGOSTART
11,
11,
500000000000000000000000000000000000000000000008,
0011,
1011,
12,
700000000000000000000000000000000000000000000008,
01, //90
1110,
1110,
500000000000000000000000000000000000000000000008,
02,
#GOGOEND
3,
3, //96
2,
2,
2,
22,
2,
2,
2,
500000000000000000000000000000000000000000000008,
0,
0, //106
#END