This commit is contained in:
2026-03-04 23:59:27 +09:00
parent 6e0312f5b4
commit 4b4e2b8c98
1128 changed files with 668765 additions and 0 deletions

623
tja/1320.tja Normal file
View File

@@ -0,0 +1,623 @@
//TJADB Project
TITLE:for Q
TITLEJA:for Q
SUBTITLE:--Mifumei (BNSI)
SUBTITLEJA:ミフメイ(BNSI)
BPM:260
WAVE:for Q.ogg
OFFSET:-1.172
DEMOSTART:48.474
COURSE:Edit
LEVEL:10
BALLOON:4,8
SCOREINIT:900
SCOREDIFF:0
#START
#MEASURE 8/4
#SCROLL 0.66
0,
0,
0,
30002222100022221022203000000000, //4
00000000000000000000000022202020,
20000000000000000000004000102220,
10202010001000221020102000211020,
10201010221010000000000000000000,
10201010211020000000000000000000,
#MEASURE 6/4
0, //10
#MEASURE 8/4
1012211012212210,
20100010002220201020202010000000,
1012211012212210,
00001000111020201020201000222020, //14
10002010102000201110102010200011,
10002010102000201110102000201020,
10222020102020102210102010201010,
400000000000100010001000200000000000100100100100200000100000100000400000000000200200200000200000, //18
10002220102000201120102010200011,
10002220102000201120102010200022,
10002220102000201120102010200020,
30002222100022221000222210002222, //22
10001110001000201000001000111000,
1021020121020140,
10001010001010100011101000111010,
10001110111020203000003000000000, //26
#GOGOSTART
10002020102020201210102010201011,
10002020102020201210102010202011,
10002020102020201210102022200030,
00212020102120201020202210202020, //30
10002020102020201210102010201011,
10002020102020201210102010202011,
10002020102020201210102010202020,
10001122100011221020101220202010, //34
10002210102000201010202012102010,
10002210102000201010400010002220,
10002120100022201000212010003000,
10001020201021101022101021101010, //38
3001221010022020,
30000011102000201000001110000000,
300000000000100010001000200000100000100000100100200000100000100000100100200100200100100000200000,
30002222101022101000221110121010, //42
#GOGOEND
70000000800000000000002110002000,
#BARLINEOFF
00001000002220201020201000000000,
10000000112000000000112000000000,
11200030000022200010102000202000, //46
#BARLINEON
00111000100010201000100010121000,
#BARLINEOFF
10202010001022100020102000111110,
20100010000020111010102010100030,
#BARLINEON
0112212302211212, //50
30000020112020100020101022100021,
10001010201010200011101020102020,
100100100000200000100000000000200100100000100000200000100100100000100000200200100100100000202000,
00222020101000700000000000008010, //54
00111000200010102010100020111020,
10102220102000201022202010202010,
00111010201010221010102110201020,
30002222100022221020001000003000, //58
10000011101010201020102010001110,
1212121210300300,
30001000111010201020102010001012,
20101220101222102010001030000000, //62
#GOGOSTART
111121112111221122112211,
200010001000100020001000100010002000100010001000200000100000000000100100200000100000100000000000,
122212221222112211221122,
100020002000100010002000200010002000100020001000100000002000000000100100200000100000100000000000, //66
101000002000000000200100100000100000100100100000100000200100100000100000100100100100100000100000,
202000001000000000200100100000100000200200100000100000200100100000100000200200100100200000100000,
100000200100100000100000200100100000100000200100100000100000202000000000100100200000200000100000,
12101012101012101012101010202010, //70
100000000000100010000000000020002000000020000000101000200000000000200000200000002000200000200200,
100000000000100000100000200000100000000000100100100000100000400000000000100000200000100000202000,
000000200200100000100000200000200000000000200200100000100000200000100000000000100100100000202000,
000000000000200000200000100000200200200000100000200200100000100000200200100000100000100010001000, //74
#MEASURE 7/4
1000112020101000102020100020,
1000222010202000122020100011,
200000002000000020000000200000100000100000100000200200100000100000200200100000100000,
200200200200100100100100200200100100100100100000200020001000200010001000202000000000, //78
#GOGOEND
#MEASURE 8/4
30000000000000000000000030222030,
0, //80
#END
COURSE:Oni
LEVEL:9
BALLOON:
SCOREINIT:1240
SCOREDIFF:0
#START
#MEASURE 8/4
#SCROLL 0.66
1120120010220022,
1201121011200200,
1120120010220022,
3000300030030000, //4
1120120010220022,
100200000100100200100000200100000220000200200200,
1211021010220022,
1221021000222022,
2112012000000000,
#MEASURE 6/4
0, //10
#MEASURE 8/4
1012201210210210,
2101010112221022,
1012201210210010,
0022221010040000, //14
1022022011020201,
1022022011020201,
2010120121021210,
2011201120120022, //18
1022022011020202,
1022022121021201,
2011221112021202,
100000202020100000202020100000202020100200200200, //22
500000000000000000000000000000000000000000000000000000000000000000000008000000000000000000000000,
0020120020120020,
1021021012210212,
00222000102010003000003000000000, //26
#GOGOSTART
1210210211012101,
1210210211021202,
1210210212212003,
0222122211021201, //30
1210210211012101,
1210210211021202,
1210210211021201,
2011210121021221, //34
1021120202102110,
1021120100400011,
0021002200210020,
000000000000200000200000100000100000200000200000500000000000000000000000000000000008000000000000, //38
3000101120012020,
3022210120001000,
300000202020200000200000100000200000200200100000,
3002221010021000, //42
#GOGOEND
3,
#BARLINEOFF
0120221020120100,
2212010020210010,
20001020002220202000102000102010, //46
#BARLINEON
00202000200020102000200010222000,
#BARLINEOFF
1121001102020012,
1102001220021103,
#BARLINEON
0112220302222212, //50
1001022212200201,
1021011211001222,
1011021212212212,
0221120300222221, //54
0011200210012001,
0011200202220221,
0012210211020202,
300000202020100000202020100100000100000000300000, //58
1000111212121011,
1212121210400400,
3010111212121012,
2122121221014000, //62
#GOGOSTART
300220102010400220102010,
300220102010401100400000,
300120102010400120102010,
300000102000102020002000300020000010200100100000, //66
100010000200200000100100000200200000200100200000,
200010000100200000200100000100200000200200100200,
00202000101000202000400022202000,
2101202101211221, //70
300000000000200020000000100000002000000010000000400000000000000020000000200000002000200000200200,
0022211201402212,
0021120210210112,
000000000000200200200000100000200000200000000000200000200000000000200000100000000000100010001000, //74
#MEASURE 7/4
10012011220100,
10011022122010,
30002110220211,
1011101010001000222020102000, //78
#GOGOEND
#MEASURE 8/4
3000000000003003,
0, //80
#END
COURSE:Hard
LEVEL:6
BALLOON:12,11,11
SCOREINIT:2320
SCOREDIFF:0
#START
#MEASURE 8/4
#SCROLL 0.66
1020120010020020,
1200121010200200,
1020120010020020,
3000300030030000, //4
1020120010020020,
1200121010020020,
1001001010020020,
1001001000000000,
1001001000000000,
#MEASURE 6/4
0, //10
#MEASURE 8/4
1000200010010010,
0211,
1000200010010010,
0020202010030000, //14
1002000011020200,
1002000011020200,
1002000011020200,
1000100020020000, //18
1002000011020200,
1002000011020200,
1002000011020200,
1212, //22
500000000000000000000000000000000000000000000000000000000000000000000008000000000000000000000000,
0020020020020000,
1010010011110002,
0020101030030000, //26
#GOGOSTART
1020022011010100,
1020022011010100,
1020022010202203,
0020220022020200, //30
1020022011020200,
1020022011020200,
1020022011020201,
0010200010102220, //34
1001020100101000,
1001020100400011,
0022001100220050,
000000000000000000000000000000000000000000000000000000000000000000000008000000000000000000000000, //38
3012,
3211,
3012,
3211, //42
#GOGOEND
30000002,
#BARLINEOFF
0000000020020000,
21002001,
0012000000200000, //46
#BARLINEON
0220200020200010,
#BARLINEOFF
0000001102020002,
0101000200022203,
#BARLINEON
0000000300000000, //50
1001011010200000,
1001011201001000,
1001011010020000,
500000000000000000000000000000000000000000000000000000000000000008000000000000000000000000100000, //54
0000100020002001,
0011200000002000,
1000200011020200,
3000300030030030, //58
70000087,
0000000080400400,
3070000000008012,
0120120220003000, //62
#GOGOSTART
101210202120,
101210200200,
101210202120,
101210020200, //66
100020000100100000100100000200200000200000200000,
100020000100100000100100000200200000200000200200,
0110110110402220,
1101101101100000, //70
100000001000000020002000100000001000200000000100,
0020110100400001,
0020220110220050,
000000000000000000000000000000000000000000000000000000000000000000000008000000000000000000000000, //74
#MEASURE 7/4
30002011100100,
10002022100010,
30002000220200,
11011010202120, //78
#GOGOEND
#MEASURE 8/4
3000000000003003,
0, //80
#END
COURSE:Normal
LEVEL:7
BALLOON:41,8,6,20
SCOREINIT:3920
SCOREDIFF:0
#START
#MEASURE 8/4
#SCROLL 0.66
12,
1000000000200200,
12,
3000300030030000, //4
12,
1000000020020020,
12,
1001001000000000,
1001001000000000,
#MEASURE 6/4
0, //10
#MEASURE 8/4
1000000010010010,
0011,
1000000010010020,
0000000010030000, //14
1000000010010000,
1000000010010000,
2000000010010000,
2000200020020000, //18
1000000010020000,
1000000010020000,
1000000010020000,
1212, //22
500000000000000000000000000000000000000000000000000000000000000000000008000000000000000000000000,
0020020020020000,
1001000010010000,
2000100030030000, //26
#GOGOSTART
1002000010010100,
1002000010010100,
1002000010002001,
0000200010020200, //30
1002000010020200,
1002000010020200,
1002000010020201,
0212, //34
1001020200001000,
1001020200400010,
0022001000220050,
000000000000000000000000000000000000000000000000000000000000000000000008000000000000000000000000, //38
3012,
3011,
3012,
3011, //42
#GOGOEND
9,
#BARLINEOFF
0,
0009,
8, //46
#BARLINEON
0100200020200010,
#BARLINEOFF
0000001002020002,
0001000200020003,
#BARLINEON
0000000300000000, //50
1001000010000000,
1001000200000000,
1001000010000000,
500000000000000000000000000000000000000000000000000000000000000008000000000000000000000000100000, //54
0000100020002001,
0011100000002000,
1000000010010000,
3000300030030030, //58
70000087,
0000000080400400,
37000000,
0008, //62
#GOGOSTART
111100,
222200,
112200,
101010020200, //66
1001001000002000,
1001001000002000,
0100100100200000,
1001001000000000, //70
100000001000000000000000200000002000000000000100,
0010100100400001,
0022000100220050,
000000000000000000000000000000000000000000000000000000000000000000000008000000000000000000000000, //74
#MEASURE 7/4
30002000100100,
10002000100010,
30002000100200,
10010010202020, //78
#GOGOEND
#MEASURE 8/4
3000000000003003,
0, //80
#END
COURSE:Easy
LEVEL:4
BALLOON:30,6,5,18
SCOREINIT:5970
SCOREDIFF:0
#START
#MEASURE 8/4
#SCROLL 0.66
12,
1,
12,
3330, //4
12,
12,
12,
1001001000000000,
1001001000000000,
#MEASURE 6/4
0, //10
#MEASURE 8/4
10001001,
02,
10001001,
04, //14
1000000010010000,
1000000010010000,
22,
2220, //18
1000000010010000,
1000000010010000,
1000000010010000,
2222, //22
500000000000000000000000000000000000000000000000000000000000000000000008000000000000000000000000,
0,
11,
1130, //26
#GOGOSTART
1012,
1012,
1000000010002003,
02, //30
1012,
1012,
1000000010002001,
0110, //34
1000000100000000,
1000000100000010,
02010205,
000000000000000000000000000000000000000000000000000000000000000000000008000000000000000000000000, //38
32,
32,
3011,
3011, //42
#GOGOEND
9,
#BARLINEOFF
0,
0009,
8, //46
#BARLINEON
0100000020000010,
#BARLINEOFF
00020000,
0001000000000003,
#BARLINEON
0000000300000000, //50
1001000010000000,
1001000000000000,
1001000010000000,
500000000000000000000000000000000000000000000000000000000000000008000000000000000000000000100000, //54
0000000010000001,
0200,
1,
3000300030030030, //58
70000087,
0000000080400400,
37000000,
0008, //62
#GOGOSTART
110100,
220200,
110200,
202000020200, //66
10010000,
10010000,
0100000100000000,
10010000, //70
1000000010000001,
0000000100000001,
0002000100020050,
000000000000000000000000000000000000000000000000000000000000000000000008000000000000000000000000, //74
#MEASURE 7/4
3000100,
1000100,
3000100,
1000200, //78
#GOGOEND
#MEASURE 8/4
3000000000003003,
0, //80
#END