This commit is contained in:
2026-03-04 23:59:27 +09:00
parent 6e0312f5b4
commit 4b4e2b8c98
1128 changed files with 668765 additions and 0 deletions

338
tja/1332.tja Normal file
View File

@@ -0,0 +1,338 @@
//TJADB Project
TITLE:Wangfei
TITLEJA:王妃
TITLEZH:王妃
SUBTITLE:--
SUBTITLEJA:
SUBTITLEZH:
BPM:127
WAVE:Wangfei.ogg
OFFSET:-1.946
DEMOSTART:61.434
COURSE:Oni
LEVEL:5
BALLOON:27
SCOREINIT:3180
SCOREDIFF:0
#START
0,
0,
00000001,
10200022,
1110201000102020,
10200022,
1110201000202020, //7
10200022,
1110201010102020,
10201122,
1110300000102020,
11200122,
1010221000102020,
11100011,
22200122, //15
11200122,
1010221000102020,
11100011,
22112020,
10200022,
1110201000102010,
10200022,
1110300000102020, //23
11200122,
1010221000102020,
11200011,
22200122,
11200122,
1010221000102020,
11200011,
22112020,
01101020, //32
#GOGOSTART
3000200010112010,
2010202010112010,
2010201011102050,
000000000008000000000000100000000000200000000000,
1000200020111010,
2010201020111010,
21221125,
000000000008000000000000100000000000200000000000, //40
3000200010112010,
2010202010112010,
2010201010012050,
000000000008000000000000100000000000200000000000,
1000200020111010,
2010201020111010,
2010202011112010,
2010202011112010,
3232, //49
#GOGOEND
30201120,
1110201000102010,
10200021,
0700,
00000800,
33000000,
0,
0, //57
#END
COURSE:Hard
LEVEL:3
BALLOON:21
SCOREINIT:4700
SCOREDIFF:0
#START
0,
0,
00000001,
1202,
10210120,
1202,
10210220, //7
1202,
10210120,
1202,
11300000,
11100020,
10110120,
11100020,
22200120, //15
11100020,
10110120,
11100020,
22202020,
1202,
10210120,
1202,
11300000, //23
11100120,
10210120,
11100020,
22200120,
11100120,
10210120,
11100020,
22202020,
01101020, //32
#GOGOSTART
30001112,
02001112,
02111105,
000000000008000000000000100000000000200000000000,
10002221,
01002221,
01221115,
000000000008000000000000100000000000200000000000, //40
30001112,
02001112,
0020101010010050,
000000000008000000000000100000000000200000000000,
10002221,
01002221,
01102201,
01102211,
33, //49
#GOGOEND
3202,
10210120,
10200022,
0700,
00000800,
33000000,
0,
0, //57
#END
COURSE:Normal
LEVEL:3
BALLOON:6,15
SCOREINIT:6550
SCOREDIFF:0
#START
0,
0,
00000001,
1200,
1101,
1200,
10010010, //7
1200,
1101,
1200,
3300,
11100010,
1101,
11100020,
2201, //15
11100010,
1101,
11100020,
2222,
1200,
1101,
1200,
3300, //23
11100010,
1101,
11100020,
2201,
11100010,
1101,
11100020,
2222,
78, //32
#GOGOSTART
30001011,
01001011,
01105000,
000000000008000000000000100000000000100000000000,
10002022,
02002022,
02205000,
000000000008000000000000100000000000100000000000, //40
30001011,
01001011,
01105000,
000000000008000000000000100000000000100000000000,
10002022,
02002022,
01101001,
01101010,
33, //49
#GOGOEND
3200,
1101,
10200011,
0700,
00000800,
33000000,
0,
0, //57
#END
COURSE:Easy
LEVEL:2
BALLOON:4,12
SCOREINIT:11720
SCOREDIFF:0
#START
0,
0,
0,
1100,
1,
1100,
2, //7
1100,
1,
1100,
3300,
1100,
1,
1100,
2200, //15
1100,
1,
1100,
22,
1100,
1,
1100,
3300, //23
1100,
1,
1100,
2200,
1100,
1,
1100,
22,
78, //32
#GOGOSTART
30001001,
00001001,
0150,
000000000008000000000000000000000000000000000000,
10002002,
00002002,
0250,
000000000008000000000000000000000000000000000000, //40
30001001,
00001001,
0150,
000000000008000000000000000000000000000000000000,
10002002,
00002002,
00101001,
0110,
33, //49
#GOGOEND
3100,
1,
1100,
0700,
00000800,
33000000,
0,
0, //57
#END