This commit is contained in:
2026-03-04 23:59:27 +09:00
parent 6e0312f5b4
commit 4b4e2b8c98
1128 changed files with 668765 additions and 0 deletions

405
tja/1343.tja Normal file
View File

@@ -0,0 +1,405 @@
//TJADB Project
TITLE:Good morning MELL-Chan
TITLEJA:おはようメルちゃん
SUBTITLE:--Song of "The Caring MELL-Chan"
SUBTITLEJA:「おせわだいすきメルちゃん」のうた
BPM:136
WAVE:Ohayou Mell-chan.ogg
OFFSET:-1.316
DEMOSTART:4.822
//shinuchi: 11080/6920/4900/3330/1680
COURSE:Edit
LEVEL:9
BALLOON:
SCOREINIT:550,1770
SCOREDIFF:150
#START
1111222211112222,
1000404011111120,
#GOGOSTART
1011202010221020,
1011201120102210,
1111202011112020,
3000300040102220,
1110202211102020,
111111111111200100200000,
1111202210111120,
33334120, //10
#GOGOEND
1211201120120120,
1221201220120120,
1211201120120120,
1221201220120110,
#GOGOSTART
1011202010221020,
1011201120102210,
1111202011112020,
3000303040102220,
1110202211102020,
111111111111200100200000,
1011202210111120,
33334120, //22
#GOGOEND
1211201120120120,
1221201220120120,
1211201120120120,
1221201220120110,
100000000100100000200000100000202020100000202020,
1022202010102000,
1211101012111010,
1011101120112122, //30
1011202011112020,
101010101010101010101010200000100100200100200200,
1011202210111120,
33434120,
1011202011020022,
1011202011020000,
1011202011020022,
1011202011020000, //38
#GOGOSTART
1211202210221120,
1011211120112210,
1111222211112020,
3000303040102220,
1111202211112020,
111111111111200100200000,
1211202210221120,
30304210, //46
#GOGOEND
1211201120120120,
1221201220120120,
1211201120120120,
1221201220120110,
0, //51
#END
COURSE:Oni
LEVEL:4
BALLOON:
SCOREINIT:860,3580
SCOREDIFF:270
#START
11121112,
10220000,
#GOGOSTART
11221010,
1000202011101000,
10221122,
1120,
11221122,
600000000000000008000000300000000000200000000000,
11221101,
33443020, //10
#GOGOEND
1010200010020000,
1010200010020000,
1010200010020000,
1010200010020000,
#GOGOSTART
11221010,
1000202011101000,
11201122,
1120,
11221112,
600000000000000008000000300000000000200000000000,
11221222,
33443020, //22
#GOGOEND
1010200010020000,
1010200010020000,
1010200010020000,
1010200010020000,
10012020,
1022202010102000,
10112020,
1000100010202220, //30
10112120,
1000100030202220,
10101212,
30303210,
1010200010020000,
1010200010020000,
1010200010020000,
1010200010020000, //38
#GOGOSTART
11221010,
1000202011101000,
11221122,
1120,
11121112,
600000000000000008000000300000000000200000000000,
11221222,
3340, //46
#GOGOEND
1010200010020000,
1010200010020000,
1010200010020000,
1010200010011010,
0, //51
#END
COURSE:Hard
LEVEL:3
BALLOON:
SCOREINIT:970,5120
SCOREDIFF:355
#START
1111,
10220000,
#GOGOSTART
11101010,
12,
10221110,
1120,
11101110,
600000000000000000000008000000000000000000000000,
11102201,
1130, //10
#GOGOEND
11101000,
22202000,
11101000,
22202000,
#GOGOSTART
11101010,
12,
10221110,
1120,
11101110,
600000000000000000000008000000000000000000000000,
11102220,
1130, //22
#GOGOEND
11101000,
22202000,
11101000,
22202000,
10012000,
10012000,
10012020,
1110, //30
10012020,
1110,
10111010,
1130,
11101000,
22202000,
11101000,
22202000, //38
#GOGOSTART
11101010,
12,
11102211,
1110,
11101110,
600000000000000000000008000000000000000000000000,
11111010,
3330, //46
#GOGOEND
11101000,
22202000,
11101000,
22202033,
0, //51
#END
COURSE:Normal
LEVEL:2
BALLOON:
SCOREINIT:940,7130
SCOREDIFF:430
#START
11,
1,
#GOGOSTART
1111,
1,
10101110,
1110,
10101110,
500000000000000000000008000000000000000000000000,
1110,
1130, //10
#GOGOEND
11,
2220,
11,
2220,
#GOGOSTART
1111,
1,
10101110,
1110,
10101110,
500000000000000000000008000000000000000000000000,
20001110,
1130, //22
#GOGOEND
11,
2220,
11,
2220,
12,
12,
12,
1110, //30
12,
1110,
1111,
1130,
11,
2220,
11,
2220, //38
#GOGOSTART
1111,
1,
10101110,
1110,
10101110,
500000000000000000000008000000000000000000000000,
20001110,
1130, //46
#GOGOEND
11,
2220,
11,
20202011,
0, //51
#END
COURSE:Easy
LEVEL:1
BALLOON:
SCOREINIT:1010,11610
SCOREDIFF:820
#START
1,
1,
#GOGOSTART
11,
1,
11,
1110,
11,
500000000000000000000008000000000000000000000000,
11,
1130, //10
#GOGOEND
1,
22,
1,
22,
#GOGOSTART
11,
1,
11,
1110,
11,
500000000000000000000008000000000000000000000000,
22,
1130, //22
#GOGOEND
1,
22,
1,
22,
1,
1,
11,
12, //30
11,
12,
11,
1130,
1,
22,
1,
22, //38
#GOGOSTART
11,
1,
11,
1110,
11,
500000000000000000000008000000000000000000000000,
22,
1130, //46
#GOGOEND
1,
22,
1,
22,
0, //51
#END