This commit is contained in:
2026-03-04 23:59:27 +09:00
parent 6e0312f5b4
commit 4b4e2b8c98
1128 changed files with 668765 additions and 0 deletions

426
tja/1353.tja Normal file
View File

@@ -0,0 +1,426 @@
//TJADB Project
TITLE:Fatale
TITLEJA:ファタール
SUBTITLE:--GEMN / 【Oshi No Ko】
SUBTITLEJA:GEMN / TVアニメ『【推しの子】』より
BPM:156
WAVE:Fatale.ogg
OFFSET:-0.808
DEMOSTART:55.745
//shinuchi: 10080/5840/3380/2330/1620
COURSE:Edit
LEVEL:9
BALLOON:3,3,6,6
SCOREINIT:570,1710
SCOREDIFF:145
#START
100000200100000200100100101010200000100000200000,
100000200100000200100100101010200000100000200000,
101010100100000200100000100200200100200000100000,
100000200100000200102020100000200100700000008000,
1020122120121021,
2022122120201021,
1021001021012012,
200100100200700000008000
000000100100100000200000, //8
1022102010221220,
100000200100100000202020200000200200100000200000,
1022102010221220,
100000200100100000202020200000100100100000100000,
1011202010111220,
100000200100100000202020200000200200100000200000,
1022201022201020,
300000200200200000200000100000100000101010202020, //16
100211211201,
201010201010200100202000,
201200211211,
500000000000000008000000200000200000200000000000,
300000000100200000100000100000101020200000300000,
000000100000200000100000100000202010100000100100,
2011201120112120,
000200100111100200100200, //24
300100200100200112200400,
100100200100200221100100,
300300200100200112200400,
1010201020202011,
1001201010011120,
1012101011102011,
2022101122122020,
1022101020101020,
1111211111112121,
2111212111221122,
500000000000000000000000000000000000000008000000,
3003003030002000, //36
#GOGOSTART
1001201012021020,
1121102010221020,
1111201211222020,
100122100100400211200200,
1021201012121020,
1121102010221020,
100112100100200221200200,
1011204000222012, //44
1022201210222012,
100000200200200000102020100000100100100000100200,
1011101210111012,
100000100100100000102020100000200200200000100200,
1022201210222012,
100000200200200000102020100000100000100000200000,
1022122210200030,
000000300000300000400000700000000000080000000000, //52
#GOGOEND
100000000000100200000200202020202020200000100000,
200122200000200222200100,
100122200100200100200100,
000000200200202020200000700000000000080000000000,
0,
0, //58
#END
COURSE:Oni
LEVEL:6
BALLOON:10,5
SCOREINIT:700,2450
SCOREDIFF:190
#START
1011011010100000,
1011011010100000,
1011011022022020,
1011011010002000,
1011022010100000,
2022011020200000,
1022001012012010,
1011101000222020, //8
1010202010112020,
1010202000222020,
2020101020221010,
2020101000111010,
1010201110102010,
1001102000202010,
12212212,
500000000000000000000000000008000000000000000000, //16
100000201010200010200200,
200010200200200000201000,
200010200000201010200200,
78,
4002201020102030,
0010201010200011,
1011101110102010,
01222121, //24
41212023,
11212020,
44212213,
12112120,
1001101010011010,
0011102010200011,
1011101110101020,
02112122,
1101011010102010,
1110111110111110,
500000000000000000000000000000000000000008000000,
3003003030002000, //36
#GOGOSTART
1001202010012010,
12121022,
1110201022201020,
32323020,
1001202010012010,
12121022,
1110201022201020,
3010402000112002, //44
0011200200112002,
0010102000221001,
0022100100221001,
0020201000112002,
0011200200112002,
01120222,
1011202210200060,
000000000000000000000000000000000008000000000000, //52
#GOGOEND
1000201022222000,
11102012,
11212121,
000000200200200000200000700000000000080000000000,
0,
0, //58
#END
COURSE:Hard
LEVEL:5
BALLOON:7,36,13
SCOREINIT:810,3620
SCOREDIFF:235
#START
10101100,
10101100,
1212,
10111020,
10101100,
20202200,
10211021,
1011101000000000, //8
20222020,
11220220,
10111010,
22110110,
20222020,
10110220,
11211121,
500000000000000000000000000008000000000000000000, //16
20202022,
20222020,
20202022,
78,
40212023,
01211201,
11221121,
01202120, //24
40212023,
01212020,
44012203,
02112000,
10111011,
0010102010200011,
11121112,
02112020,
9,
0,
0900,
8, //36
#GOGOSTART
1001101010011010,
12121022,
11221122,
3332,
1001101010011010,
12121022,
11221122,
3000400000101002, //44
0010100200101002,
0010100000202001,
0020200100202001,
0020200000101002,
0010100200101002,
01100222,
11221206,
000000000000000000000000000000000008000000000000, //52
#GOGOEND
10202220,
11102012,
11122027,
000000000000000000080000,
0,
0, //58
#END
COURSE:Normal
LEVEL:3
BALLOON:5,5,25,9
SCOREINIT:940,6460
SCOREDIFF:338
#START
1110,
1110,
1212,
1110,
1110,
1110,
1212,
78, //8
2222,
10110000,
1111,
20220000,
2222,
10110000,
1212,
500000000000000000000000000008000000000000000000, //16
2222,
2222,
2222,
78,
40002003,
02,
10002001,
02, //24
40002003,
02,
40001003,
01,
10101011,
0110,
10101011,
0120,
9,
0,
0900,
8, //36
#GOGOSTART
10111010,
10111000,
1212,
3330,
10111010,
10111000,
1212,
3000400000001001, //44
0000100100001001,
0000000000002002,
0000200200002002,
0000000000001001,
0000100100001001,
0002,
10101106,
000000000000000000000000000000000008000000000000, //52
#GOGOEND
1220,
11102000,
10102007,
000000000000000000080000,
0,
0, //58
#END
COURSE:Easy
LEVEL:2
BALLOON:3,3,20,5
SCOREINIT:1030,11720
SCOREDIFF:683
#START
11,
11,
11,
1110,
11,
11,
11,
78, //8
2220,
1,
1110,
2,
2220,
1,
11,
500000000000000000000000000008000000000000000000, //16
22,
2,
22,
78,
40000003,
0,
10000001,
0, //24
40000003,
0,
40000003,
0,
10100001,
0,
10100001,
0,
9,
0,
0900,
8, //36
#GOGOSTART
11,
1110,
11,
3330,
11,
1110,
11,
3301, //44
0101,
0002,
0202,
0001,
0101,
0,
10101006,
000000000000000000000000000008000000000000000000, //52
#GOGOEND
12,
12,
10002007,
000000000000000000080000,
0,
0, //58
#END