This commit is contained in:
2026-03-04 23:59:27 +09:00
parent 6e0312f5b4
commit 4b4e2b8c98
1128 changed files with 668765 additions and 0 deletions

400
tja/136.tja Normal file
View File

@@ -0,0 +1,400 @@
//TJADB Project
TITLE:Evidence of evil
TITLEJA:Evidence of evil
SUBTITLE:--AJURIKA
SUBTITLEJA:AJURIKA
BPM:180
WAVE:Evidence of evil.ogg
OFFSET:-1.705
DEMOSTART:76.364
COURSE:Oni
LEVEL:10
BALLOON:9
SCOREINIT:400
SCOREDIFF:100
#START
100000100000100211100000,
1111,
100222100000100000100000,
0030000011100000,
000000000000000211100000,
,
0020000022202000,
33333000,
1021102112020210,
1021102112020210,
1222102212221021,
1021102110300000,
1022102212020210,
1022102212020210,
1122202211221022,
1022102210400000,
2222102212020210,
2222102212020210,
1222122012221220,
1222122210201011,
1021102110211021,
1021102112112022,
200200202020202020202020200000200000200200200000,
,
1111201110112012,
1111201210212012,
1111201110112012,
1022002200220022,
1111201211212012,
1111201211212021,
2021202120212020,
2222202222202222,
1021102101021220,
1021102101021120,
1022101202210202,
1022101202021120,
1021102101021220,
1021102101021122,
2211221122112211,
,
1000100011112000,
1000100011112000,
1111200011112000,
1120112012204000,
1022102210221021,
1022102210221110,
100100200100200200200000100200200100202020200000,
300000000000100100100000200100100000100000201010,
1,
,
,
,
2220222022022022,
200200000200200000200200000200200200202020202020,
1221221212212210,
#SCROLL 4
78,
#SCROLL 1
#GOGOSTART
1121021012010210,
1221021012210210,
1121021012010210,
1122112211221122,
1121021012010210,
1221021012210210,
1121021021210210,
1122112222112211,
1121021012010210,
100200200100000200100000101010100000202020200000,
1121021012010210,
1222122212221011,
2222112222112211,
2212221210004000,
600000000000000000000000000000000008000000000000,
1121221211212212,
1121021011210210,
1221021012210210,
1121021011210210,
1222112211121110,
111111111111100000300000,
111111111111100000400000,
3003003003001110,
4004004004002220,//80
#GOGOEND
#END
COURSE:Hard
LEVEL:8
BALLOON:7
SCOREINIT:480
SCOREDIFF:120
#START
1000100010111000,
1111,
1011100010001000,
0030000011100000,
0000000000111000,
,
0020000022202000,
33333000,
1000100011011000,
1000100011011000,
1110100011101000,
1110111000300000,
1000100022022000,
1000100022022000,
1110200022201000,
1110222000400000,
2220200022022000,
2220200022022000,
1110222010201000,
2220222010201011,
12121212,
1110222011102220,
500000000000000000000000000000000000000008000000,
,
1110200010102000,
1110200010202000,
1110200010102000,
1022002200220022,
0022002010202000,
11211121,
1110222011102220,
500000000000000000000000000000000008000000000000,
1110201110102000,
1110201110102000,
1110201110201110,
2011102011102000,
2220102220102220,
1022201022201000,
2220222022202222,
,
1000100011102000,
1000100011102000,
1110200011102000,
1020102011104000,
21212121,
2010201020101110,
1111100022222000,
300000000000100100100000100100100000100000101010,
1,
,
,
,
2222200020002000,
2222200020002022,
2002002020202220,
#SCROLL 8
78,//56
#SCROLL 1
#GOGOSTART
1011101110201000,
1011101110201000,
1011101110111022,
2022202220202000,
1011101110201000,
1011101110201000,
1011101022220000,
1110222011102220,
1011101110201000,
1011101022202220,
1011101110111022,
2022202220201000,
2220222022202220,
12201040,
3333,
1111100022222000,
1011101110201000,
1022201022201000,
1011101110201000,
1102201110222000,
600000000000000000000008000000000000300000000000,
600000000000000000000008000000000000400000000000,
3003003003001110,
4004004004002220,//80
#GOGOEND
,
,
#END
COURSE:Normal
LEVEL:7
BALLOON:5
SCOREINIT:500
#START
1113,
1111,
1111,
03003300,
0003,
,
02002220,
33333000,
10101210,
10101210,
11101110,
10100300,
10101220,
10101220,
11202210,
10100400,
20201210,
20201210,
12111210,
12212210,
11201120,
11211120,
500000000000000000000000000000000000000008000000,
,
10201120,
11211220,
10201120,
12020202,
12021202,
11111122,
11221122,
500000000000000000000000000000000008000000000000,
11201120,
11211220,
11211210,
21121120,
12212210,
21221220,
12121212,
,
1112,
1112,
11201120,
12121140,
21212121,
21212110,
11201220,
30333030,
3,
,
,
,
22202020,
22202020,
22222222,
#SCROLL 8
78,//56
#SCROLL 1
#GOGOSTART
10111011,
12101210,
11121110,
11121110,
10111011,
12101210,
11121200,
500000000000000000000000000000000008000000000000,
10111011,
12104040,
11121110,
12212210,
11221122,
12201040,
3333,
34434430,
10111211,
12101210,
11121110,
12212210,
600000000000000000000008000000000000300000000000,
600000000000000000000008000000000000400000000000,
3003003003003000,
4004004004004000,//80
#GOGOEND
,
,
#END
COURSE:Easy
LEVEL:5
BALLOON:5
SCOREINIT:320
SCOREDIFF:83
#START
1113,
1111,
1111,
03003300,
0003,
,
,
33333000,
10101110,
10101110,
11101110,
10100300,
10101110,
10101110,
11101110,
10100300,
10101110,
11101010,
10101110,
10101011,
1111,
10101111,
50000008,
,
10111010,
10101110,
10111010,
11010101,
01000000,
1111,
11101110,
5008,
10111010,
10101110,
10110110,
11011010,
10110110,
11011010,
11101111,
,
1113,
1113,
1313,
01011030,
11010101,
01010110,
11301130,
30333030,
3,
,
,
,
1,
1,
11101111,
#SCROLL 8
78,//56
#SCROLL 1
#GOGOSTART
10111011,
10101110,
11101110,
10111110,
10111011,
10101110,
10101100,
50000800,
10111011,
1133,
10111011,
10111110,
11101110,
1103,
3333,
33303330,
10111010,
11101110,
10111010,
11101110,
600000000000000000000008000000000000300000000000,
600000000000000000000008000000000000300000000000,
3003003003003000,
3003003003003000,//80
#GOGOEND
,
,
#END