tja
This commit is contained in:
518
tja/1360.tja
Normal file
518
tja/1360.tja
Normal file
@@ -0,0 +1,518 @@
|
||||
//TJADB Project
|
||||
TITLE:Aipai Dance Hall
|
||||
TITLEJA:愛包ダンスホール
|
||||
SUBTITLE:--HIMEHINA
|
||||
SUBTITLEJA:HIMEHINA
|
||||
BPM:141
|
||||
WAVE:Aipai Dance Hall.ogg
|
||||
OFFSET:-1.259
|
||||
DEMOSTART:69.338
|
||||
|
||||
COURSE:Oni
|
||||
LEVEL:8
|
||||
BALLOON:
|
||||
SCOREINIT:1470
|
||||
SCOREDIFF:0
|
||||
|
||||
#START
|
||||
1000100010010010,
|
||||
1000100010001022,
|
||||
0020110200201102,
|
||||
01221110,
|
||||
|
||||
1000102010012010,
|
||||
1020102010101102,
|
||||
0020110200201102,
|
||||
011110111011101
|
||||
#GOGOSTART
|
||||
1, //8
|
||||
|
||||
0000200010012010,
|
||||
2010201020112101,
|
||||
0000200010012010,
|
||||
1020102010112101,
|
||||
|
||||
0000200010012010,
|
||||
2010201020112101,
|
||||
0000200010012010,
|
||||
102010201011010
|
||||
#GOGOEND
|
||||
1, //16
|
||||
|
||||
0020202220222020,
|
||||
2022202020220202,
|
||||
01121121,
|
||||
11121121,
|
||||
|
||||
0022202202022020,
|
||||
2202020222202220,
|
||||
2210102010100010,
|
||||
11121121, //24
|
||||
|
||||
1000111040110022,
|
||||
2020202200202020,
|
||||
1000111040110022,
|
||||
2020202200202020,
|
||||
|
||||
10121120,
|
||||
3020300300101020,
|
||||
1110201101012010,
|
||||
500000000000000000000008000000200200200000400000, //32
|
||||
|
||||
4011101101012020,
|
||||
0022202202021010,
|
||||
0011101101012020,
|
||||
1010120102002020,
|
||||
|
||||
1011101101012020,
|
||||
1020201101002020,
|
||||
600000000000000000000000000000000008000000000000,
|
||||
1101010110004000, //40
|
||||
|
||||
#GOGOSTART
|
||||
1000102210211210,
|
||||
1022102210112011,
|
||||
1020110210201102,
|
||||
1020111040404040,
|
||||
|
||||
1000102210211210,
|
||||
1022102210112011,
|
||||
1020110210201102,
|
||||
0110202010220204, //48
|
||||
|
||||
00011122,
|
||||
1010102200102010,
|
||||
1011101111011110,
|
||||
1011101102202202,
|
||||
|
||||
1000102210211210,
|
||||
1022102210112011,
|
||||
102011021020110
|
||||
#GOGOEND
|
||||
2,
|
||||
002020202011020
|
||||
#GOGOSTART
|
||||
1, //56
|
||||
|
||||
0000102210112010,
|
||||
1120112010112102,
|
||||
1021102110211210,
|
||||
1012101040404040,
|
||||
|
||||
1000102210211210,
|
||||
34346000,
|
||||
000000000008000000500000000008000000500008000000,
|
||||
600000000000000008000000400000000000400000000000, //64
|
||||
|
||||
1000102210211210,
|
||||
1022102210112011,
|
||||
1020110210201102,
|
||||
1020111020220204,
|
||||
|
||||
0000102210211210,
|
||||
4040402200102201,
|
||||
102011021020110
|
||||
#GOGOEND
|
||||
2,
|
||||
000002222020202
|
||||
#GOGOSTART
|
||||
1, //72
|
||||
|
||||
0000202210212010,
|
||||
2010201020112101,
|
||||
0000202210212010,
|
||||
1020102010112101,
|
||||
|
||||
0000202210212010,
|
||||
2010201020112101,
|
||||
0000202210212010,
|
||||
303030303011030
|
||||
#GOGOEND
|
||||
3,
|
||||
|
||||
000000000000000000600008000000000000000000000000,
|
||||
0, //82
|
||||
#END
|
||||
|
||||
|
||||
COURSE:Hard
|
||||
LEVEL:6
|
||||
BALLOON:11,9,5,5,11,10,11
|
||||
SCOREINIT:2420
|
||||
SCOREDIFF:0
|
||||
|
||||
#START
|
||||
1110,
|
||||
10111000,
|
||||
1212,
|
||||
7008,
|
||||
|
||||
1000100010010000,
|
||||
10121000,
|
||||
1000200010001001,
|
||||
007000000000800
|
||||
#GOGOSTART
|
||||
1, //8
|
||||
|
||||
0000100020020020,
|
||||
1010101010110101,
|
||||
0000100020020020,
|
||||
1010101010110101,
|
||||
|
||||
0000100020020020,
|
||||
1010101010110101,
|
||||
0000100020020020,
|
||||
101010101011010
|
||||
#GOGOEND
|
||||
1, //16
|
||||
|
||||
0222,
|
||||
10207008,
|
||||
01101101,
|
||||
10101110,
|
||||
|
||||
1222,
|
||||
10207008,
|
||||
01101101,
|
||||
10101110, //24
|
||||
|
||||
|
||||
1000303030110000,
|
||||
500000000000000000000000000000000008000000000000,
|
||||
1000303030110000,
|
||||
500000000000000000000000000000000008000000000000,
|
||||
|
||||
10201120,
|
||||
3000300300102000,
|
||||
1000100101001010,
|
||||
500000000000000000000008000000000000000000000000, //32
|
||||
|
||||
|
||||
4000101101002020,
|
||||
0010101101002020,
|
||||
0010101101002020,
|
||||
7008,
|
||||
|
||||
1000101101002020,
|
||||
1000101101002020,
|
||||
600000000000000000000000000000000008000000000000,
|
||||
1101010030004000, //40
|
||||
|
||||
#GOGOSTART
|
||||
1000102010011010,
|
||||
12121020,
|
||||
1010110010101100,
|
||||
11114444,
|
||||
|
||||
1000102010011010,
|
||||
12121020,
|
||||
1010110010101107,
|
||||
0000000000800003, //48
|
||||
|
||||
00001121,
|
||||
1010201100002000,
|
||||
1010101011002020,
|
||||
11114444,
|
||||
|
||||
1000102010011010,
|
||||
12121020,
|
||||
101011001010110
|
||||
#GOGOEND
|
||||
1,
|
||||
000020002000000
|
||||
#GOGOSTART
|
||||
1, //56
|
||||
|
||||
0000102010110000,
|
||||
1000102010110101,
|
||||
01111020,
|
||||
11114444,
|
||||
|
||||
1000102010010010,
|
||||
33336000,
|
||||
0,
|
||||
000000000000000008000000000000000000000000000000, //64
|
||||
|
||||
1000102010011010,
|
||||
12121020,
|
||||
1010110010101100,
|
||||
100100100100600000000080,
|
||||
|
||||
00122020,
|
||||
4040400400102000,
|
||||
101011001010110
|
||||
#GOGOEND
|
||||
1,
|
||||
000000002000000
|
||||
#GOGOSTART
|
||||
1, //72
|
||||
|
||||
0000102010020020,
|
||||
1010101010110101,
|
||||
0000102010020020,
|
||||
1010101010110101,
|
||||
|
||||
0000102010020020,
|
||||
1010101010110101,
|
||||
0000102010020020,
|
||||
900000000000000000000000000000000090000000000
|
||||
#GOGOEND
|
||||
800,
|
||||
|
||||
0,
|
||||
0, //82
|
||||
#END
|
||||
|
||||
|
||||
COURSE:Normal
|
||||
LEVEL:5
|
||||
BALLOON:8,8,8,10,8
|
||||
SCOREINIT:4300
|
||||
SCOREDIFF:0
|
||||
|
||||
#START
|
||||
12,
|
||||
11,
|
||||
12,
|
||||
7008,
|
||||
|
||||
1120,
|
||||
1110,
|
||||
1000000020000007,
|
||||
000000000008000
|
||||
#GOGOSTART
|
||||
1, //8
|
||||
|
||||
0110,
|
||||
1010100010000001,
|
||||
0110,
|
||||
2020200020000001,
|
||||
|
||||
0110,
|
||||
1010100010000001,
|
||||
0110,
|
||||
500000000000000000000000000000000008000000000
|
||||
#GOGOEND
|
||||
100, //16
|
||||
|
||||
02,
|
||||
22,
|
||||
11,
|
||||
1110,
|
||||
|
||||
22,
|
||||
2220,
|
||||
11,
|
||||
1110, //24
|
||||
|
||||
1330,
|
||||
500000000000000000000000000000000008000000000000,
|
||||
1330,
|
||||
500000000000000000000000000000000008000000000000,
|
||||
|
||||
1110,
|
||||
3000300300000000,
|
||||
1212,
|
||||
500000000000000000000008000000000000000000000000, //32
|
||||
|
||||
00100022,
|
||||
00100022,
|
||||
00100022,
|
||||
7008,
|
||||
|
||||
10100011,
|
||||
1101,
|
||||
600000000000000000000000000000000008000000000000,
|
||||
3034, //40
|
||||
|
||||
#GOGOSTART
|
||||
1000100010010000,
|
||||
11111000,
|
||||
1212,
|
||||
11104440,
|
||||
|
||||
1000100010010000,
|
||||
11111000,
|
||||
1122,
|
||||
7000000000000008, //48
|
||||
|
||||
01,
|
||||
1000100100001000,
|
||||
11101020,
|
||||
11104440,
|
||||
|
||||
1000100010010000,
|
||||
11111000,
|
||||
100020001000200
|
||||
#GOGOEND
|
||||
0,
|
||||
000020002000000
|
||||
#GOGOSTART
|
||||
1, //56
|
||||
|
||||
01,
|
||||
1000100010010000,
|
||||
01101010,
|
||||
11104440,
|
||||
|
||||
1000100010010000,
|
||||
33336000,
|
||||
0,
|
||||
000000000000000008000000000000000000000000000000, //64
|
||||
|
||||
1000100010010000,
|
||||
11111000,
|
||||
1212,
|
||||
100100100000600000000080,
|
||||
|
||||
0022,
|
||||
4040400400000000,
|
||||
100020001000200
|
||||
#GOGOEND
|
||||
0,
|
||||
000000002000000
|
||||
#GOGOSTART
|
||||
1, //72
|
||||
|
||||
0110,
|
||||
1010100010000001,
|
||||
0110,
|
||||
2020200020000001,
|
||||
|
||||
0110,
|
||||
1010100010000001,
|
||||
0110,
|
||||
900000000000000000000000000000000090000000000
|
||||
#GOGOEND
|
||||
800,
|
||||
|
||||
0,
|
||||
0, //82
|
||||
#END
|
||||
|
||||
|
||||
COURSE:Easy
|
||||
LEVEL:3
|
||||
BALLOON:5,5,5,9,6
|
||||
SCOREINIT:6790
|
||||
SCOREDIFF:0
|
||||
|
||||
#START
|
||||
1,
|
||||
1,
|
||||
1,
|
||||
70000800,
|
||||
|
||||
11,
|
||||
1,
|
||||
1000000010000007,
|
||||
000000000800000
|
||||
#GOGOSTART
|
||||
1, //8
|
||||
|
||||
01,
|
||||
1000100010000001,
|
||||
01,
|
||||
1000100010000001,
|
||||
|
||||
01,
|
||||
1000100010000001,
|
||||
01,
|
||||
500000000000000000000000000008000000000000000
|
||||
#GOGOEND
|
||||
100, //16
|
||||
|
||||
0,
|
||||
1,
|
||||
11,
|
||||
1,
|
||||
|
||||
1,
|
||||
2,
|
||||
11,
|
||||
1, //24
|
||||
|
||||
0330,
|
||||
500000000000000000000000000000000008000000000000,
|
||||
0330,
|
||||
500000000000000000000000000008000000000000000000,
|
||||
|
||||
11,
|
||||
3300,
|
||||
1011,
|
||||
500000000000000000000008000000000000000000000000, //32
|
||||
|
||||
0101,
|
||||
0101,
|
||||
0101,
|
||||
70000800,
|
||||
|
||||
1101,
|
||||
1101,
|
||||
600000000000000000000000000000000008000000000000,
|
||||
03, //40
|
||||
|
||||
#GOGOSTART
|
||||
1110,
|
||||
1110,
|
||||
11,
|
||||
1130,
|
||||
|
||||
1110,
|
||||
1110,
|
||||
12,
|
||||
7000000000000008, //48
|
||||
|
||||
01,
|
||||
1101,
|
||||
1101,
|
||||
1130,
|
||||
|
||||
1110,
|
||||
1110,
|
||||
100000001000100
|
||||
#GOGOEND
|
||||
0,
|
||||
000000000000000
|
||||
#GOGOSTART
|
||||
1, //56
|
||||
|
||||
01,
|
||||
1110,
|
||||
0220,
|
||||
2240,
|
||||
|
||||
1110,
|
||||
3360,
|
||||
0,
|
||||
000000000000000008000000000000000000000000000000, //64
|
||||
|
||||
1110,
|
||||
1110,
|
||||
11,
|
||||
100100600008,
|
||||
|
||||
0022,
|
||||
4400,
|
||||
100000001000100
|
||||
#GOGOEND
|
||||
0,
|
||||
000000000000000
|
||||
#GOGOSTART
|
||||
1, //72
|
||||
|
||||
01,
|
||||
1000100010000001,
|
||||
01,
|
||||
1000100010000001,
|
||||
|
||||
01,
|
||||
1110,
|
||||
11,
|
||||
900000000000000000000000000000000090000000000
|
||||
#GOGOEND
|
||||
800,
|
||||
|
||||
0,
|
||||
0, //82
|
||||
#END
|
||||
Reference in New Issue
Block a user